DVD Los Amigos Invisibles - Mentiras (Vob, Promo Only)

Discussion in 'SD' started by markitomg, Feb 11, 2019.

  1. markitomg

    markitomg Well-Known Member

    Joined:
    May 24, 2016
    Messages:
    1,337
    Likes Received:
    494
    [​IMG]

    Code:
    Format                         : MPEG-PS
    File size                      : 141 MiB
    Duration                       : 3mn 3s
    Overall bit rate mode          : Variable
    Overall bit rate               : 6 456 Kbps
    
    Video
    ID                             : 224 (0xE0)
    Format                         : MPEG Video
    Format version                 : Version 2
    Format profile                 : Main@Main
    Format settings, BVOP          : No
    Format settings, Matrix        : Custom
    Format settings, GOP           : M=3, N=16
    Duration                       : 3mn 3s
    Bit rate mode                  : Variable
    Bit rate                       : 5 944 Kbps
    Maximum bit rate               : 8 000 Kbps
    Width                          : 720 pixels
    Height                         : 480 pixels
    Display aspect ratio           : 4:3
    Frame rate                     : 29.970 fps
    Standard                       : NTSC
    Color space                    : YUV
    Chroma subsampling             : 4:2:0
    Bit depth                      : 8 bits
    Scan type                      : Interlaced
    Scan order                     : Top Field First
    Compression mode               : Lossy
    Bits/(Pixel*Frame)             : 0.574
    Time code of first frame       : 00:00:00:00
    Time code source               : Group of pictures header
    Stream size                    : 130 MiB (92%)
    Color primaries                : BT.601 NTSC
    Transfer characteristics       : BT.601
    Matrix coefficients            : BT.601
    
    Audio
    ID                             : 192 (0xC0)
    Format                         : MPEG Audio
    Format version                 : Version 1
    Format profile                 : Layer 2
    Duration                       : 3mn 3s
    Bit rate mode                  : Constant
    Bit rate                       : 384 Kbps
    Channel(s)                     : 2 channels
    Sampling rate                  : 48.0 KHz
    Compression mode               : Lossy
    Stream size                    : 8.38 MiB (6%)
    Hidden Content:
    You must reply before you can see the hidden data contained here.
     
  2. Loading...


  3. mastodontosaurio

    mastodontosaurio Well-Known Member

    Joined:
    Sep 29, 2015
    Messages:
    1,178
    Likes Received:
    57
    muchas gracias gran aporte latino
     
  4. jfsilva28

    jfsilva28 Well-Known Member

    Joined:
    May 9, 2018
    Messages:
    1,150
    Likes Received:
    91
    Gracias
     
  5. shing000

    shing000 Well-Known Member

    Joined:
    Mar 13, 2016
    Messages:
    1,707
    Likes Received:
    153
    Gracias
     
  6. sigosiendo

    sigosiendo Active Member

    Joined:
    Oct 30, 2018
    Messages:
    381
    Likes Received:
    32
    Mil Gracias!!!
     
  7. andy80

    andy80 Member

    Joined:
    Sep 25, 2016
    Messages:
    158
    Likes Received:
    16
    thanks :love:
     
  8. Shing800

    Shing800 Member

    Joined:
    Feb 21, 2019
    Messages:
    320
    Likes Received:
    10
    Thanks!!