Lorde - Royals (Telehit.HD.1080i.DD2.0).-Crusha

Discussion in 'TELEHIT HD' started by Crusha, Jun 29, 2015.

  1. Crusha

    Crusha Well-Known Member Capper

    Joined:
    Oct 15, 2014
    Messages:
    2,350
    Likes Received:
    2,170
    [​IMG]

    General
    ID : 1 (0x1)
    Complete name : Lorde - Royals (Telehit.HD.1080i.DD2.0).-Crusha.ts
    Format : MPEG-TS
    File size : 55.2 MiB
    Duration : 3mn 18s
    Overall bit rate mode : Variable
    Overall bit rate : 2 328 Kbps

    Video
    ID : 2238 (0x8BE)
    Menu ID : 857 (0x359)
    Format : AVC
    Format/Info : Advanced Video Codec
    Format profile : [email protected]
    Format settings, CABAC : Yes
    Format settings, ReFrames : 4 frames
    Format settings, GOP : M=8, N=32
    Codec ID : 27
    Duration : 3mn 18s
    Bit rate : 2 019 Kbps
    Width : 1 920 pixels
    Height : 1 080 pixels
    Display aspect ratio : 16:9
    Frame rate : 29.970 fps
    Standard : Component
    Color space : YUV
    Chroma subsampling : 4:2:0
    Bit depth : 8 bits
    Scan type : MBAFF
    Scan order : Top Field First
    Bits/(Pixel*Frame) : 0.032
    Stream size : 47.8 MiB (87%)
    Color primaries : BT.709
    Transfer characteristics : BT.709
    Matrix coefficients : BT.709
    Color range : Limited

    Audio
    ID : 3849 (0xF09)
    Menu ID : 857 (0x359)
    Format : AC-3
    Format/Info : Audio Coding 3
    Mode extension : CM (complete main)
    Format settings, Endianness : Big
    Codec ID : 6
    Duration : 3mn 18s
    Bit rate mode : Constant
    Bit rate : 192 Kbps
    Channel(s) : 2 channels
    Channel positions : Front: L R
    Sampling rate : 48.0 KHz
    Bit depth : 16 bits
    Compression mode : Lossy
    Delay relative to video : -200ms
    Stream size : 4.55 MiB (8%)
    Language : English

    Hidden Content:
    You must either reply or click 'Like' to see the hidden information contained here.
    Password: crusha

    Cap By Me :)
     
  2. Harry

    Harry Member

    Joined:
    Mar 4, 2014
    Messages:
    288
    Likes Received:
    3
  3. reader_

    reader_ New Member

    Joined:
    Jun 5, 2015
    Messages:
    23
    Likes Received:
    0
    2nd pic.png

    What a look in the second screenshot.

    Ella is so unique.
     
  4. betoxky

    betoxky Active Member

    Joined:
    Feb 3, 2014
    Messages:
    184
    Likes Received:
    206
    thank you so much
     
  5. Pavulon

    Pavulon Well-Known Member

    Joined:
    Mar 22, 2016
    Messages:
    1,394
    Likes Received:
    35
    thanks