BLU-RAY Lorde - Fuji Rock Festival 2014

Discussion in 'BLU-RAY' started by masahiro, Sep 5, 2014.

  1. masahiro

    masahiro Well-Known Member Capper

    Joined:
    Oct 21, 2013
    Messages:
    321
    Likes Received:
    2,557
    [​IMG]

    Code:
    General
    ID                             : 0 (0x0)
    Format                         : BDAV
    Format/Info                    : Blu-ray Video
    File size                      : 1.25 GiB
    Duration                       : 13mn 23s
    Overall bit rate mode          : Variable
    Overall bit rate               : 13.4 Mbps
    Maximum Overall bit rate       : 48.0 Mbps
    
    Video
    ID                             : 4113 (0x1011)
    Menu ID                        : 1 (0x1)
    Format                         : MPEG Video
    Format version                 : Version 2
    Format profile                 : Main@High
    Format settings, BVOP          : Yes
    Format settings, Matrix        : Custom
    Format settings, GOP           : M=3, N=15
    Codec ID                       : 2
    Duration                       : 13mn 22s
    Bit rate                       : 12.5 Mbps
    Maximum bit rate               : 12.3 Mbps
    Width                          : 1 440 pixels
    Height                         : 1 080 pixels
    Display aspect ratio           : 16:9
    Frame rate                     : 29.970 fps
    Color space                    : YUV
    Chroma subsampling             : 4:2:0
    Bit depth                      : 8 bits
    Scan type                      : Interlaced
    Scan order                     : Top Field First
    Compression mode               : Lossy
    Bits/(Pixel*Frame)             : 0.267
    Stream size                    : 1.16 GiB (93%)
    
    Audio #1
    ID                             : 4352 (0x1100)
    Menu ID                        : 1 (0x1)
    Format                         : AAC
    Format/Info                    : Advanced Audio Codec
    Format version                 : Version 2
    Format profile                 : LC
    Muxing mode                    : ADTS
    Codec ID                       : 15
    Duration                       : 13mn 23s
    Bit rate mode                  : Variable
    Bit rate                       : 192 Kbps
    Channel(s)                     : 2 channels
    Channel positions              : Front: L R
    Sampling rate                  : 48.0 KHz
    Compression mode               : Lossy
    Delay relative to video        : -2ms
    Stream size                    : 18.4 MiB (1%)
    
    Audio #2
    ID                             : 4353 (0x1101)
    Menu ID                        : 1 (0x1)
    Format                         : AAC
    Format/Info                    : Advanced Audio Codec
    Format version                 : Version 2
    Format profile                 : LC
    Muxing mode                    : ADTS
    Codec ID                       : 15
    Duration                       : 13mn 23s
    Bit rate mode                  : Variable
    Bit rate                       : 192 Kbps
    Channel(s)                     : 2 channels
    Channel positions              : Front: L R
    Sampling rate                  : 48.0 KHz
    Compression mode               : Lossy
    Delay relative to video        : -8ms
    Stream size                    : 18.4 MiB (1%)
    Hidden Content:
    You must either reply or click 'Like' to see the hidden information contained here.
     
  2. shlanderous

    shlanderous SAL V . I . P. Donor

    Joined:
    Oct 20, 2013
    Messages:
    2,658
    Likes Received:
    27,156
    Thanks!
     
  3. detroit1

    detroit1 Well-Known Member

    Joined:
    Jan 6, 2014
    Messages:
    2,846
    Likes Received:
    390
    thanks
     
  4. Maura

    Maura Well-Known Member

    Joined:
    Apr 7, 2014
    Messages:
    2,922
    Likes Received:
    89
    thanks
     
  5. VodzigorLans

    VodzigorLans Well-Known Member Capper

    Joined:
    Oct 18, 2013
    Messages:
    258
    Likes Received:
    697
    Thank you very much!
     
  6. santa321

    santa321 Well-Known Member

    Joined:
    Dec 7, 2013
    Messages:
    1,563
    Likes Received:
    58
    thanks
     
  7. alex

    alex Well-Known Member

    Joined:
    Nov 21, 2013
    Messages:
    4,577
    Likes Received:
    380
    thanks:victory:
     
  8. rhea

    rhea Well-Known Member

    Joined:
    Jan 6, 2014
    Messages:
    7,530
    Likes Received:
    901
    so nice :)
    thank you so much!
     
  9. brian182

    brian182 Well-Known Member

    Joined:
    Oct 14, 2013
    Messages:
    2,033
    Likes Received:
    107
    thanks!
     
  10. Jeremy017

    Jeremy017 Member

    Joined:
    Sep 5, 2014
    Messages:
    186
    Likes Received:
    0
    wow lorde's music is really cool
     
  11. mikedreams

    mikedreams Well-Known Member Donor

    Joined:
    Nov 20, 2013
    Messages:
    443
    Likes Received:
    1,947
    Masahiro is my hero.
     
  12. nn_rod

    nn_rod Member

    Joined:
    Aug 1, 2014
    Messages:
    601
    Likes Received:
    16
    thank u
     
  13. skimper

    skimper Active Member

    Joined:
    Oct 7, 2014
    Messages:
    786
    Likes Received:
    38
    tks
     
  14. sk8erboi2

    sk8erboi2 Member

    Joined:
    Oct 20, 2014
    Messages:
    259
    Likes Received:
    1
    Thanks!
     
  15. VivaF

    VivaF New Member

    Joined:
    Oct 24, 2014
    Messages:
    17
    Likes Received:
    0
    thank u
     
  16. s3ukill02

    s3ukill02 Member

    Joined:
    Dec 3, 2014
    Messages:
    39
    Likes Received:
    29
     
  17. uminomiyako

    uminomiyako Well-Known Member

    Joined:
    May 28, 2016
    Messages:
    2,122
    Likes Received:
    85
  18. 80ss

    80ss Member

    Joined:
    Nov 3, 2016
    Messages:
    315
    Likes Received:
    6
    Thank You
     
  19. Thassyo

    Thassyo Well-Known Member

    Joined:
    Oct 9, 2013
    Messages:
    2,712
    Likes Received:
    1,200
    Thanks
     
  20. wasper

    wasper Member

    Joined:
    Jan 8, 2018
    Messages:
    130
    Likes Received:
    4
    thank you