Loona - Vamos a La Playa (MTVIdol-1080i-DD2.0)-Olgold

Discussion in 'MTV IDOL' started by Olgold, Apr 14, 2017.

  1. Olgold

    Olgold Well-Known Member Capper

    Joined:
    Aug 19, 2015
    Messages:
    436
    Likes Received:
    1,771
    Loona - Vamos a La Playa
    [​IMG]
    General
    Format : MPEG-TS
    File size : 155 MiB
    Duration : 2 min 54 s
    Overall bit rate mode : Variable
    Overall bit rate : 7 418 kb/s

    Video
    Format : AVC
    Format/Info : Advanced Video Codec
    Format profile : High@L4
    Format settings, CABAC : Yes
    Format settings, ReFrames : 4 frames
    Duration : 2 min 53 s
    Bit rate : 6 858 kb/s
    Width : 1 920 pixels
    Height : 1 080 pixels
    Display aspect ratio : 16:9
    Frame rate : 25.000 FPS
    Standard : Component
    Color space : YUV
    Chroma subsampling : 4:2:0
    Bit depth : 8 bits
    Scan type : MBAFF
    Scan type, store method : Interleaved fields
    Scan order : Top Field First
    Bits/(Pixel*Frame) : 0.132
    Stream size : 142 MiB (92%)

    Audio
    Format : AC-3
    Format/Info : Audio Coding 3
    Mode extension : CM (complete main)
    Format settings, Endianness : Big
    Duration : 2 min 54 s
    Bit rate mode : Constant
    Bit rate : 192 kb/s
    Channel(s) : 2 channels
    Channel positions : Front: L R
    Sampling rate : 48.0 kHz
    Frame rate : 31.250 FPS (1536 spf)
    Compression mode : Lossy
    Delay relative to video : -451 ms
    Stream size : 4.00 MiB (3%)
    Password: Olgold

    Hidden Content:
    You must reply before you can see the hidden data contained here.
     
    rhea, CELOBRAZiL and art-v-k like this.
  2. art-v-k

    art-v-k Well-Known Member Capper

    Joined:
    Nov 1, 2013
    Messages:
    280
    Likes Received:
    12,796
    thnks
     
  3. CELOBRAZiL

    CELOBRAZiL Well-Known Member Capper V . I . P. Donor

    Joined:
    Oct 2, 2013
    Messages:
    4,843
    Likes Received:
    15,489
    Thank you so much! :)
     
  4. rvden

    rvden Well-Known Member

    Joined:
    Apr 9, 2017
    Messages:
    489
    Likes Received:
    337
    Thank you!
     
  5. spyro10

    spyro10 New Member

    Joined:
    Jul 2, 2016
    Messages:
    29
    Likes Received:
    0
    thansk so mcuh
     
  6. DiVenturas

    DiVenturas Well-Known Member

    Joined:
    Oct 21, 2015
    Messages:
    2,755
    Likes Received:
    154
  7. miyara

    miyara My reputation died in this forum V . I . P. Uploader

    Joined:
    Feb 21, 2016
    Messages:
    1,034
    Likes Received:
    3,341
    Thanks.
     
  8. rhea

    rhea Well-Known Member

    Joined:
    Jan 6, 2014
    Messages:
    7,550
    Likes Received:
    903
    thanks
     
  9. plover123

    plover123 Member

    Joined:
    May 1, 2017
    Messages:
    67
    Likes Received:
    1
    thanks
     
  10. parbulo

    parbulo Member

    Joined:
    Mar 17, 2016
    Messages:
    37
    Likes Received:
    1
    thanks