HDTV Live from the Artists Den - S11E04 - The Lumineers 2016 BISHD 1080i HDTV DD5.1 H.264 CELOBRAZiL

Discussion in 'HD Live Performances' started by CELOBRAZiL, Mar 13, 2018.

  1. CELOBRAZiL

    CELOBRAZiL Well-Known Member Capper V . I . P. Donor

    Joined:
    Oct 2, 2013
    Messages:
    5,916
    Likes Received:
    19,265
    Live from the Artists Den - S11E04 - The Lumineers 2016 BISHD 1080i HDTV DD5.1 H.264 CELOBRAZiL-HDMania

    [​IMG]



    Format : MPEG-TS
    File size : 2.41 GiB
    Duration : 54 min 0 s
    Overall bit rate mode : Variable
    Overall bit rate : 6 392 kb/s

    Video
    ID : 420 (0x1A4)
    Menu ID : 5142 (0x1416)
    Format : AVC
    Format/Info : Advanced Video Codec
    Format profile : High@L4
    Format settings : CABAC / 4 Ref Frames
    Format settings, CABAC : Yes
    Format settings, RefFrames : 4 frames
    Codec ID : 27
    Duration : 54 min 0 s
    Bit rate : 5 688 kb/s
    Width : 1 920 pixels
    Height : 1 080 pixels
    Display aspect ratio : 16:9
    Frame rate : 29.970 (30000/1001) FPS
    Color space : YUV
    Chroma subsampling : 4:2:0
    Bit depth : 8 bits
    Scan type : MBAFF
    Scan type, store method : Interleaved fields
    Scan order : Top Field First
    Bits/(Pixel*Frame) : 0.092
    Stream size : 2.15 GiB (89%)

    Audio
    ID : 424 (0x1A8)
    Menu ID : 5142 (0x1416)
    Format : AC-3
    Format/Info : Audio Coding 3
    Codec ID : 129
    Duration : 54 min 0 s
    Bit rate mode : Constant
    Bit rate : 384 kb/s
    Channel(s) : 6 channels
    Channel positions : Front: L C R, Side: L R, LFE
    Sampling rate : 48.0 kHz
    Frame rate : 31.250 FPS (1536 SPF)
    Bit depth : 16 bits
    Compression mode : Lossy
    Stream size : 148 MiB (6%)
    Language : English
    Service kind : Complete Main

    Link(s):
    Hidden Content:
    You must either reply or click 'Like' to see the hidden information contained here.
     
  2. Loading...


  3. detroit1

    detroit1 Well-Known Member

    Joined:
    Jan 6, 2014
    Messages:
    3,303
    Likes Received:
    463
    please also try to get John Legend from Artists Den
     
  4. CELOBRAZiL

    CELOBRAZiL Well-Known Member Capper V . I . P. Donor

    Joined:
    Oct 2, 2013
    Messages:
    5,916
    Likes Received:
    19,265
  5. Extazy4u2

    Extazy4u2 Well-Known Member

    Joined:
    Jan 26, 2017
    Messages:
    2,707
    Likes Received:
    280
    Thanks
     
    CELOBRAZiL likes this.
  6. Mupenzi Patrick

    Mupenzi Patrick Active Member

    Joined:
    Jun 22, 2018
    Messages:
    638
    Likes Received:
    32
  7. mujjme

    mujjme Member

    Joined:
    Aug 22, 2017
    Messages:
    405
    Likes Received:
    5
    !!!!!!!!!!!!