HDTV Lip Sync Battle S01E14 Victoria Justice vs Gregg Sulkin 2015-07-30 1080i HDTV DD2.0 MPEG2-TrollHD

Discussion in 'Interviews / TV shows / Others' started by Dfrazzer, Jan 5, 2017.

  1. Dfrazzer

    Dfrazzer Super Moderator Staff Member Super Moderator Capper V . I . P. Donor

    Joined:
    Nov 4, 2013
    Messages:
    4,871
    Likes Received:
    10,604
    [​IMG] [​IMG] [​IMG] [​IMG]

    Code:
    General
    ID : 1 (0x1)
    Complete name : D:\Lip Sync Battle S01E14 Victoria Justice vs Gregg Sulkin 2015-07-30 1080i HDTV DD2.0 MPEG2-TrollHD.ts
    Format : MPEG-TS
    File size : 2.36 GiB
    Duration : 20mn 35s
    Overall bit rate mode : Variable
    Overall bit rate : 16.4 Mbps
    Law rating : TV-PG (L)
    
    Video
    ID : 551 (0x227)
    Menu ID : 1 (0x1)
    Format : MPEG Video
    Format version : Version 2
    Format profile : [email protected]
    Format settings, BVOP : Yes
    Format settings, Matrix : Custom
    Format settings, GOP : M=3, N=15
    Format settings, picture structure : Frame
    Codec ID : 2
    Duration : 20mn 34s
    Bit rate mode : Variable
    Bit rate : 15.2 Mbps
    Maximum bit rate : 16.0 Mbps
    Width : 1 920 pixels
    Height : 1 080 pixels
    Display aspect ratio : 16:9
    Frame rate : 29.970 fps
    Color space : YUV
    Chroma subsampling : 4:2:0
    Bit depth : 8 bits
    Scan type : Interlaced
    Scan order : Top Field First
    Compression mode : Lossy
    Bits/(Pixel*Frame) : 0.245
    Time code of first frame : 00:00:00;00
    Time code source : Group of pictures header
    GOP, Open/Closed : Open
    Stream size : 2.18 GiB (93%)
    
    Audio
    ID : 552 (0x228)
    Menu ID : 1 (0x1)
    Format : AC-3
    Format/Info : Audio Coding 3
    Mode extension : CM (complete main)
    Format settings, Endianness : Big
    Codec ID : 129
    Duration : 20mn 34s
    Bit rate mode : Constant
    Bit rate : 384 Kbps
    Channel(s) : 2 channels
    Channel positions : Front: L R
    Sampling rate : 48.0 KHz
    Compression mode : Lossy
    Delay relative to video : -9ms
    Stream size : 56.5 MiB (2%)
    Language : English
    
    Text #1
    ID : 551 (0x227)-CC1
    Menu ID : 1 (0x1)
    Format : EIA-608
    Muxing mode : A/53 / DTVCC Transport
    Muxing mode, more info : Muxed in Video #1
    Duration : 20mn 34s
    Bit rate mode : Constant
    Stream size : 0.00 Byte (0%)
    
    Text #2
    ID : 551 (0x227)-1
    Menu ID : 1 (0x1)
    Format : EIA-708
    Muxing mode : A/53 / DTVCC Transport
    Muxing mode, more info : Muxed in Video #1
    Duration : 20mn 34s
    Bit rate mode : Constant
    Stream size : 0.00 Byte (0%)
    
    Hidden Content:
    You must reply before you can see the hidden data contained here.
    Original capper: TrollHD
     
    edgar likes this.
  2. Loading...


  3. edgar

    edgar Well-Known Member V . I . P.

    Joined:
    Oct 12, 2013
    Messages:
    1,750
    Likes Received:
    1,741
    Thank you:love::love::love:

    You can get the Gigi Hadid
    please
     
  4. Blunder

    Blunder Member

    Joined:
    Mar 27, 2016
    Messages:
    381
    Likes Received:
    8
    Thanks. Victoria is such a beauty. :love::love::love:
     
  5. Snorom6

    Snorom6 Well-Known Member V . I . P. Uploader

    Joined:
    Dec 17, 2015
    Messages:
    4,248
    Likes Received:
    5,157
  6. Dav0121

    Dav0121 New Member

    Joined:
    Jan 1, 2017
    Messages:
    18
    Likes Received:
    1
    thanks :)
     
  7. santa321

    santa321 Well-Known Member

    Joined:
    Dec 7, 2013
    Messages:
    1,485
    Likes Received:
    52
    thank you
     
  8. yhkim

    yhkim Active Member

    Joined:
    Nov 19, 2013
    Messages:
    826
    Likes Received:
    10
    thank you so much
     
  9. Evens01

    Evens01 Member

    Joined:
    Feb 5, 2016
    Messages:
    308
    Likes Received:
    5
    thanks
     
  10. BiG_Blue

    BiG_Blue Active Member

    Joined:
    Oct 2, 2014
    Messages:
    431
    Likes Received:
    26
    good job man
     
  11. Grizzly3101

    Grizzly3101 Member

    Joined:
    Nov 30, 2016
    Messages:
    136
    Likes Received:
    12
    thanks
     
  12. Grizzly3101

    Grizzly3101 Member

    Joined:
    Nov 30, 2016
    Messages:
    136
    Likes Received:
    12
    thanks
     
  13. orgulo

    orgulo Active Member

    Joined:
    Jan 16, 2017
    Messages:
    849
    Likes Received:
    38
    thanks
     
  14. jack_black

    jack_black Well-Known Member

    Joined:
    Feb 16, 2014
    Messages:
    859
    Likes Received:
    727
    Thank you!
     
  15. kraddock

    kraddock Member

    Joined:
    Oct 3, 2016
    Messages:
    74
    Likes Received:
    1
    amazing!
     
  16. Trop1cal

    Trop1cal Member

    Joined:
    Feb 5, 2015
    Messages:
    557
    Likes Received:
    12
    Thank you
     
  17. Bouncer

    Bouncer Member

    Joined:
    Jan 5, 2016
    Messages:
    497
    Likes Received:
    12
    tks tks
     
  18. MACHADO

    MACHADO Member

    Joined:
    Jun 12, 2017
    Messages:
    348
    Likes Received:
    19
    Gracias
     
  19. IWNLYD

    IWNLYD Member

    Joined:
    Feb 28, 2017
    Messages:
    183
    Likes Received:
    1
    thank you
     
  20. shing000

    shing000 Active Member

    Joined:
    Mar 13, 2016
    Messages:
    944
    Likes Received:
    37
    thanks
     
  21. AlexMoore

    AlexMoore Member

    Joined:
    Jul 16, 2014
    Messages:
    64
    Likes Received:
    74