FEED Lionel Richie - Glastonbury 2015 FEED 1080i 32.4Mbps 4-2-2 MPA2.0 H.264-UPLINK [SRSL]

Discussion in 'HD Live Performances' started by royevilone, Jan 11, 2017.

  1. royevilone

    royevilone Well-Known Member Donor

    Joined:
    Feb 16, 2016
    Messages:
    1,079
    Likes Received:
    790
    Lionel Richie - Glastonbury 2015 FEED 1080i 32.4Mbps 4-2-2 MPA2.0 H.264-UPLINK [SRSL]

    [​IMG]

    Code:
    General
    ID                             : 1 (0x1)
    Complete name                  : C:\Users\royevilone\Desktop\新建文件夹\Lionel Richie - Glastonbury 2015 FEED 1080i 32.4Mbps 4-2-2 MPA2.0 H.264-UPLINK [SRSL].ts
    Format                         : MPEG-TS
    File size                      : 19.0 GiB
    Duration                       : 1h 23mn
    Overall bit rate mode          : Variable
    Overall bit rate               : 32.4 Mbps
    
    Video
    ID                             : 512 (0x200)
    Menu ID                        : 1 (0x1)
    Format                         : AVC
    Format/Info                    : Advanced Video Codec
    Format profile                 : High 4:2:[email protected]
    Format settings, CABAC         : Yes
    Format settings, ReFrames      : 4 frames
    Codec ID                       : 27
    Duration                       : 1h 23mn
    Bit rate                       : 30.4 Mbps
    Width                          : 1 920 pixels
    Height                         : 1 080 pixels
    Display aspect ratio           : 16:9
    Frame rate                     : 25.000 fps
    Color space                    : YUV
    Chroma subsampling             : 4:2:2
    Bit depth                      : 8 bits
    Scan type                      : Interlaced
    Scan order                     : Top Field First
    Bits/(Pixel*Frame)             : 0.586
    Stream size                    : 17.8 GiB (94%)
    Color range                    : Limited
    Color primaries                : BT.709
    Transfer characteristics       : BT.709
    Matrix coefficients            : BT.709
    
    Audio
    ID                             : 4112 (0x1010)
    Menu ID                        : 1 (0x1)
    Format                         : MPEG Audio
    Format version                 : Version 1
    Format profile                 : Layer 2
    Codec ID                       : 3
    Duration                       : 1h 23mn
    Bit rate mode                  : Constant
    Bit rate                       : 384 Kbps
    Channel(s)                     : 2 channels
    Sampling rate                  : 48.0 KHz
    Compression mode               : Lossy
    Delay relative to video        : 70ms
    Stream size                    : 230 MiB (1%)
    Language                       : English
    
    Menu
    ID                             : 32 (0x20)
    Menu ID                        : 1 (0x1)
    Duration                       : 1h 23mn
    List                           : 512 (0x200) (AVC) / 4112 (0x1010) (MPEG Audio, English)
    Language                       :  / English
    Maximum bit rate               : 200000000
    Setlist:
    01. Running With the Night
    02. Penny Lover
    03. Easy (Commodores song)
    04. You Are
    05. Three Times a Lady (Commodores song)
    06. Brick House (Commodores song)
    07. Stuck on You
    08. Lady (You Bring Me Up) (Commodores song)
    09. My Destiny
    10. Angel
    11. Say You, Say Me
    12. Dancing on the Ceiling
    13. Hello
    14. All Night Long (All Night)
    15. We Are the World (U.S.A. for Africa cover)

    Info:
    Source:
    BBC
    Quality: HDTV | 1080i
    Format: TS | 32.4 Mbps
    Length: 01:23:50 | 18.9Gb
    Video: H.264 | 1920x1080i | 16:9 | 25.000fps
    Audio: MP2 | 385kbps | 48kHz | 2 channels: L R
    Language: English

    Download:
    Hidden Content:
    You must reply before you can see the hidden data contained here.
     
    Last edited: Aug 8, 2017
    giespinosa and frankie68 like this.
  2. Loading...


  3. Adaros

    Adaros Active Member

    Joined:
    Jun 5, 2016
    Messages:
    447
    Likes Received:
    75
    Thanks
     
  4. giampiale

    giampiale Member

    Joined:
    Oct 9, 2015
    Messages:
    142
    Likes Received:
    20
  5. Bruno

    Bruno Well-Known Member

    Joined:
    Nov 3, 2013
    Messages:
    1,498
    Likes Received:
    116
    many thx
     
  6. detroit1

    detroit1 Well-Known Member

    Joined:
    Jan 6, 2014
    Messages:
    2,567
    Likes Received:
    336
    thank you
     
  7. snow69

    snow69 Active Member

    Joined:
    Jan 1, 2017
    Messages:
    139
    Likes Received:
    29
    Thank you!!
     
  8. california4fun

    california4fun Member

    Joined:
    Dec 17, 2014
    Messages:
    184
    Likes Received:
    11
  9. hdlogic

    hdlogic Member

    Joined:
    Jan 1, 2017
    Messages:
    90
    Likes Received:
    4
    thanks!
     
  10. royevilone

    royevilone Well-Known Member Donor

    Joined:
    Feb 16, 2016
    Messages:
    1,079
    Likes Received:
    790
    Finished upload!:)
     
  11. rkn9

    rkn9 Well-Known Member

    Joined:
    Jan 9, 2016
    Messages:
    3,399
    Likes Received:
    40
    oleeeeeeeeeee
     
  12. blackhatbear

    blackhatbear Active Member

    Joined:
    Oct 3, 2016
    Messages:
    193
    Likes Received:
    41
  13. cici1234

    cici1234 Active Member

    Joined:
    May 31, 2014
    Messages:
    285
    Likes Received:
    210
    thank you
     
  14. Vinny

    Vinny Well-Known Member

    Joined:
    Dec 26, 2013
    Messages:
    3,583
    Likes Received:
    29
    Thanks! ;-D
     
  15. frankie68

    frankie68 Member

    Joined:
    Jan 16, 2017
    Messages:
    38
    Likes Received:
    1
    thanks
     
  16. BuggeD

    BuggeD New Member

    Joined:
    Jan 12, 2017
    Messages:
    28
    Likes Received:
    0
    cheers
     
  17. Dream66

    Dream66 Active Member

    Joined:
    Jan 24, 2016
    Messages:
    472
    Likes Received:
    101
    Thanks :)
     
  18. thesparkly1

    thesparkly1 Active Member

    Joined:
    May 5, 2017
    Messages:
    612
    Likes Received:
    29
    thanks
     
  19. rambo8888

    rambo8888 New Member

    Joined:
    Jul 4, 2016
    Messages:
    17
    Likes Received:
    2
  20. bonny

    bonny Well-Known Member

    Joined:
    Jun 7, 2016
    Messages:
    1,382
    Likes Received:
    54
    thanks
     
  21. Extazy4u2

    Extazy4u2 Well-Known Member

    Joined:
    Jan 26, 2017
    Messages:
    1,944
    Likes Received:
    196