CC Linkin Park - Shadow Of The Day (MHD-1080i-DD2.0-CDMan) [CC]

Discussion in 'MHD' started by CELOBRAZiL, Aug 16, 2016.

  1. CELOBRAZiL

    CELOBRAZiL Well-Known Member Capper V . I . P. Donor

    Joined:
    Oct 2, 2013
    Messages:
    1,341
    Likes Received:
    3,502
    Linkin Park - Shadow Of The Day (MHD-1080i-DD2.0-CDMan) [CC]

    [​IMG]



    Format : MPEG-PS
    File size : 459 MiB
    Duration : 4mn 14s
    Overall bit rate mode : Variable
    Overall bit rate : 15.1 Mbps
    Law rating : TV-PG

    Video
    ID : 224 (0xE0)
    Format : MPEG Video
    Format version : Version 2
    Format profile : [email protected]
    Format settings, BVOP : Yes
    Format settings, Matrix : Custom
    Format settings, GOP : Variable
    Duration : 4mn 14s
    Bit rate mode : Variable
    Bit rate : 14.4 Mbps
    Maximum bit rate : 38.8 Mbps
    Width : 1 920 pixels
    Height : 1 080 pixels
    Display aspect ratio : 16:9
    Frame rate : 29.970 fps
    Standard : Component
    Color space : YUV
    Chroma subsampling : 4:2:0
    Bit depth : 8 bits
    Compression mode : Lossy
    Bits/(Pixel*Frame) : 0.232
    Time code of first frame : 00:00:00:00
    Time code source : Group of pictures header
    GOP, Open/Closed : Open
    GOP, Open/Closed of first frame : Closed
    Stream size : 439 MiB (95%)
    Color primaries : BT.709
    Transfer characteristics : BT.709
    Matrix coefficients : BT.709

    Audio
    ID : 189 (0xBD)-128 (0x80)
    Format : AC-3
    Format/Info : Audio Coding 3
    Mode extension : CM (complete main)
    Format settings, Endianness : Big
    Muxing mode : DVD-Video
    Duration : 4mn 14s
    Bit rate mode : Constant
    Bit rate : 384 Kbps
    Channel(s) : 2 channels
    Channel positions : Front: L R
    Sampling rate : 48.0 KHz
    Bit depth : 16 bits
    Compression mode : Lossy
    Stream size : 11.7 MiB (3%)

    Text #1
    ID : 224 (0xE0)-CC1
    Format : EIA-608
    Muxing mode : A/53 / DTVCC Transport
    Muxing mode, more info : Muxed in Video #1
    Bit rate mode : Constant
    Stream size : 0.00 Byte (0%)

    Text #2
    ID : 224 (0xE0)-1
    Format : EIA-708
    Muxing mode : A/53 / DTVCC Transport
    Muxing mode, more info : Muxed in Video #1
    Bit rate mode : Constant
    Stream size : 0.00 Byte (0%)

    Link(s):
    Hidden Content:
    You must either reply or click 'Like' to see the hidden information contained here.
     
    Last edited: Aug 29, 2016
  2. adam dark

    adam dark Well-Known Member

    Joined:
    Dec 5, 2013
    Messages:
    2,367
    Likes Received:
    3,606
    CELOBRAZiL likes this.
  3. yonita

    yonita Member

    Joined:
    Mar 7, 2016
    Messages:
    349
    Likes Received:
    10
  4. Jorge Barrionuevo

    Jorge Barrionuevo Active Member

    Joined:
    Jun 9, 2015
    Messages:
    702
    Likes Received:
    193
    Muchas Gracias!
     
  5. tapions

    tapions Active Member

    Joined:
    Aug 30, 2016
    Messages:
    749
    Likes Received:
    47
    gracias
     
  6. SagarKapasi099

    SagarKapasi099 New Member

    Joined:
    Sep 25, 2016
    Messages:
    26
    Likes Received:
    3
    Thanks
     
  7. rizal666

    rizal666 New Member

    Joined:
    Oct 9, 2016
    Messages:
    14
    Likes Received:
    1
    thanks
     
  8. CristianMatias

    CristianMatias Member

    Joined:
    Sep 17, 2016
    Messages:
    535
    Likes Received:
    14
    Linkin Park
     
  9. rafaalone

    rafaalone Member

    Joined:
    Dec 1, 2016
    Messages:
    42
    Likes Received:
    5
  10. ethan03

    ethan03 Member

    Joined:
    Dec 9, 2016
    Messages:
    73
    Likes Received:
    1
    Thanks
     
  11. immortalzack

    immortalzack Member

    Joined:
    Jan 10, 2017
    Messages:
    100
    Likes Received:
    1
    tankss yuu