Linkin Park - New Divide (BridgeHD-1080i-MP2-Olgold)-HDMania

Discussion in 'Bridge HD' started by Olgold, Oct 13, 2016.

  1. Olgold

    Olgold Well-Known Member Capper

    Joined:
    Aug 19, 2015
    Messages:
    436
    Likes Received:
    1,708
    Linkin Park - New Divide
    [​IMG]
    General
    Format : MPEG-TS
    File size : 242 MiB
    Duration : 4 min 25 s
    Overall bit rate mode : Variable
    Overall bit rate : 7 631 kb/s

    Video
    Format : AVC
    Format/Info : Advanced Video Codec
    Format profile : [email protected]
    Format settings, CABAC : Yes
    Format settings, ReFrames : 4 frames
    Duration : 4 min 24 s
    Bit rate : 7 060 kb/s
    Width : 1 920 pixels
    Height : 1 080 pixels
    Display aspect ratio : 16:9
    Frame rate : 25.000 FPS
    Standard : Component
    Color space : YUV
    Chroma subsampling : 4:2:0
    Bit depth : 8 bits
    Scan type : Interlaced
    Scan type, store method : Separated fields
    Scan order : Top Field First
    Bits/(Pixel*Frame) : 0.136
    Stream size : 223 MiB (92%)
    Color range : Limited

    Audio
    Format : MPEG Audio
    Format version : Version 1
    Format profile : Layer 2
    Duration : 4 min 25 s
    Bit rate mode : Constant
    Bit rate : 192 kb/s
    Channel(s) : 2 channels
    Sampling rate : 48.0 kHz
    Compression mode : Lossy
    Delay relative to video : 20 ms
    Stream size : 6.08 MiB (3%)
    Password: Olgold

    Hidden Content:
    You must reply before you can see the hidden data contained here.
     
    CELOBRAZiL and rhea like this.
  2. Loading...


  3. rhea

    rhea Well-Known Member

    Joined:
    Jan 6, 2014
    Messages:
    6,915
    Likes Received:
    751
    thank you so much
     
  4. Grailen

    Grailen Well-Known Member

    Joined:
    Oct 8, 2013
    Messages:
    605
    Likes Received:
    773
    thank you :)
     
  5. CELOBRAZiL

    CELOBRAZiL Well-Known Member Capper V . I . P. Donor

    Joined:
    Oct 2, 2013
    Messages:
    4,079
    Likes Received:
    12,826
    Thank you so much! :)
     
  6. CristianMatias

    CristianMatias HIGH DEFINITION

    Joined:
    Sep 17, 2016
    Messages:
    827
    Likes Received:
    21
    Linkin Park
     
  7. zhxliveing

    zhxliveing Active Member

    Joined:
    Sep 7, 2016
    Messages:
    649
    Likes Received:
    28
    t'ha'ni
    ks
     
  8. Raigameryt2

    Raigameryt2 Member

    Joined:
    Nov 7, 2016
    Messages:
    56
    Likes Received:
    2
  9. lululudek

    lululudek New Member

    Joined:
    Jan 10, 2017
    Messages:
    20
    Likes Received:
    0
  10. Dove_

    Dove_ New Member

    Joined:
    Mar 2, 2017
    Messages:
    29
    Likes Received:
    19
    ...........
     
  11. pancho1234

    pancho1234 Member

    Joined:
    Nov 11, 2017
    Messages:
    232
    Likes Received:
    10