Linkin Park - In The End (MTVIDOL-1080i-DD2.0-Djodjara)-HDMania

Discussion in 'MTV IDOL' started by Djodjara, May 22, 2015.

  1. Djodjara

    Djodjara Gwen Fan Capper

    Joined:
    Sep 6, 2014
    Messages:
    652
    Likes Received:
    1,072
    Linkin Park - In The End (MTV Idol-1080i-Djodjara)-HDMania

    [​IMG]
    [​IMG]

    General:
    ID : 1 (0x1)
    Format : MPEG-TS
    File size : 133 MiB
    Duration : 3mn 36s
    Overall bit rate mode : Variable
    Overall bit rate : 5 151 Kbps

    Video:
    ID : 310 (0x136)
    Menu ID : 1 (0x1)
    Format : AVC
    Format/Info : Advanced Video Codec
    Format profile : [email protected]
    Format settings, CABAC : Yes
    Format settings, ReFrames : 4 frames
    Codec ID : 27
    Duration : 3mn 36s
    Bit rate : 4 702 Kbps
    Width : 1 920 pixels
    Height : 1 080 pixels
    Display aspect ratio : 16:9
    Frame rate : 25.000 fps
    Standard : Component
    Color space : YUV
    Chroma subsampling : 4:2:0
    Bit depth : 8 bits
    Scan type : MBAFF
    Scan order : Top Field First
    Bits/(Pixel*Frame) : 0.091
    Stream size : 121 MiB (91%)
    Color primaries : BT.709
    Transfer characteristics : BT.709
    Matrix coefficients : BT.709
    Color range : Limited

    Audio:
    ID : 321 (0x141)
    Menu ID : 1 (0x1)
    Format : AC-3
    Format/Info : Audio Coding 3
    Mode extension : CM (complete main)
    Format settings, Endianness : Big
    Codec ID : 6
    Duration : 3mn 36s
    Bit rate mode : Constant
    Bit rate : 192 Kbps
    Channel(s) : 2 channels
    Channel positions : Front: L R
    Sampling rate : 48.0 KHz
    Bit depth : 16 bits
    Compression mode : Lossy
    Stream size : 4.96 MiB (4%)
    Language : French

    Hidden Content:
    You must reply before you can see the hidden data contained here.
     
  2. PauloBruno

    PauloBruno Member

    Joined:
    Jun 12, 2014
    Messages:
    54
    Likes Received:
    0
    Thanks!
     
  3. adam dark

    adam dark Well-Known Member

    Joined:
    Dec 5, 2013
    Messages:
    2,475
    Likes Received:
    3,823
  4. lpplus

    lpplus Well-Known Member

    Joined:
    Sep 28, 2014
    Messages:
    438
    Likes Received:
    586
    Thank you so much
     
  5. 777josem

    777josem Well-Known Member Uploader

    Joined:
    Sep 1, 2014
    Messages:
    2,426
    Likes Received:
    1,296
    :happy:Thank you so much!
     
  6. rhea

    rhea Well-Known Member

    Joined:
    Jan 6, 2014
    Messages:
    5,266
    Likes Received:
    253
    thank you so much! :)
     
  7. tknobi

    tknobi Well-Known Member

    Joined:
    Feb 22, 2014
    Messages:
    363
    Likes Received:
    536
    Thanks!
     
  8. tsm897

    tsm897 Member

    Joined:
    Apr 16, 2014
    Messages:
    129
    Likes Received:
    3
    thank you
     
  9. ericbook

    ericbook Member

    Joined:
    Jan 3, 2014
    Messages:
    150
    Likes Received:
    1
    thanks ..great video!
     
  10. Crusha

    Crusha Well-Known Member Capper

    Joined:
    Oct 15, 2014
    Messages:
    2,350
    Likes Received:
    2,136
    thank you very much
     
  11. janito33

    janito33 Member

    Joined:
    Dec 10, 2014
    Messages:
    134
    Likes Received:
    1
    muchas gracias por el video
     
  12. hanibal.king

    hanibal.king Member

    Joined:
    Jun 4, 2015
    Messages:
    35
    Likes Received:
    0
    thanks for the video
     
  13. Vinny

    Vinny Active Member

    Joined:
    Dec 26, 2013
    Messages:
    1,770
    Likes Received:
    7
    Thank U!
     
  14. lpzion

    lpzion Member

    Joined:
    May 10, 2014
    Messages:
    112
    Likes Received:
    17
    thanks for the video
     
  15. Emazing

    Emazing Member

    Joined:
    Nov 6, 2013
    Messages:
    48
    Likes Received:
    0
    lets see, thanks djodara
     
  16. furkan

    furkan Member

    Joined:
    Oct 9, 2015
    Messages:
    194
    Likes Received:
    3
    thnks youuuu
     
  17. issamtohme

    issamtohme Active Member

    Joined:
    Oct 14, 2015
    Messages:
    373
    Likes Received:
    111
    much thanks
     
  18. cero

    cero Member

    Joined:
    Nov 1, 2013
    Messages:
    82
    Likes Received:
    0
    great video
     
  19. Attention

    Attention Active Member

    Joined:
    Nov 30, 2013
    Messages:
    564
    Likes Received:
    29
  20. J_Pablo

    J_Pablo Active Member

    Joined:
    Nov 27, 2013
    Messages:
    430
    Likes Received:
    62
    Thank you so much!