Linkin Park - Final Masquerade [1080p]

Discussion in 'WEB MASTER' started by Vector09, Dec 6, 2018.

  1. Vector09

    Vector09 Well-Known Member

    Joined:
    Feb 16, 2016
    Messages:
    431
    Likes Received:
    793
    [​IMG]
    Code:
    General
    Complete name                  : D:\Linkin Park - Final Masquerade.mov
    Format                         : MPEG-4
    Codec ID                       : M4V  (M4V /mp42/isom)
    File size                      : 365 MiB
    Duration                       : 5 min 9 s
    Overall bit rate mode          : Variable
    Overall bit rate               : 9 895 kb/s
    Encoded date                   : UTC 2014-07-29 23:36:41
    Tagged date                    : UTC 2014-07-29 23:36:58
    ㏕IM                            : 00:59:59:17
    ㏕SC                            : 24000
    ㏕SZ                            : 1001
    
    Video
    ID                             : 1
    Format                         : AVC
    Format/Info                    : Advanced Video Codec
    Format profile                 : Baseline@L4
    Format settings, CABAC         : No
    Format settings, RefFrames     : 2 frames
    Codec ID                       : avc1
    Codec ID/Info                  : Advanced Video Coding
    Duration                       : 5 min 9 s
    Source duration                : 5 min 9 s
    Bit rate                       : 9 767 kb/s
    Width                          : 1 920 pixels
    Height                         : 1 080 pixels
    Display aspect ratio           : 16:9
    Frame rate mode                : Variable
    Frame rate                     : 23.976 (24000/1001) FPS
    Minimum frame rate             : 23.976 FPS
    Maximum frame rate             : 24.000 FPS
    Standard                       : NTSC
    Color space                    : YUV
    Chroma subsampling             : 4:2:0
    Bit depth                      : 8 bits
    Scan type                      : Progressive
    Bits/(Pixel*Frame)             : 0.196
    Stream size                    : 361 MiB (99%)
    Source stream size             : 361 MiB (99%)
    Language                       : English
    Encoded date                   : UTC 2014-07-29 23:36:41
    Tagged date                    : UTC 2014-07-29 23:36:41
    Color range                    : Limited
    mdhd_Duration                  : 309726
    
    Audio
    ID                             : 2
    Format                         : AAC
    Format/Info                    : Advanced Audio Codec
    Format profile                 : LC
    Codec ID                       : 40
    Duration                       : 5 min 9 s
    Source duration                : 5 min 9 s
    Bit rate mode                  : Variable
    Bit rate                       : 125 kb/s
    Maximum bit rate               : 203 kb/s
    Channel(s)                     : 2 channels
    Channel positions              : Front: L R
    Sampling rate                  : 48.0 kHz
    Frame rate                     : 46.875 FPS (1024 SPF)
    Compression mode               : Lossy
    Stream size                    : 4.63 MiB (1%)
    Source stream size             : 4.63 MiB (1%)
    Language                       : English
    Encoded date                   : UTC 2014-07-29 23:36:41
    Tagged date                    : UTC 2014-07-29 23:36:41
    mdhd_Duration                  : 309739
    
    



    Download:
    Hidden Content:
    You must reply before you can see the hidden data contained here.
     
    Last edited: Dec 6, 2018
  2. Loading...


  3. DOTSFAM

    DOTSFAM Stan

    Joined:
    Jan 4, 2014
    Messages:
    174
    Likes Received:
    4
    Thank you
     
  4. Sheki

    Sheki Member

    Joined:
    Oct 5, 2015
    Messages:
    605
    Likes Received:
    23
    Thanks
     
  5. lpplus

    lpplus LP & MET Fan

    Joined:
    Sep 28, 2014
    Messages:
    866
    Likes Received:
    3,921
    Thank you
     
  6. Vinny

    Vinny Well-Known Member

    Joined:
    Dec 26, 2013
    Messages:
    4,121
    Likes Received:
    54
    Thanks