Lindsay Lohan - Rumors MV (PO)

Discussion in 'SD Live Performances' started by adam dark, Nov 14, 2014.

  1. dimrous22

    dimrous22 Active Member

    Joined:
    Sep 11, 2016
    Messages:
    771
    Likes Received:
    32
  2. cristiangabriel16

    cristiangabriel16 Member

    Joined:
    Jan 27, 2018
    Messages:
    80
    Likes Received:
    62
    Great thank you
     
  3. fendyzachariey

    fendyzachariey Member

    Joined:
    Jun 23, 2017
    Messages:
    480
    Likes Received:
    8
  4. Nzo

    Nzo New Member

    Joined:
    Aug 16, 2016
    Messages:
    22
    Likes Received:
    1
    Thanks.
     
  5. asidazim

    asidazim Member

    Joined:
    Feb 15, 2018
    Messages:
    40
    Likes Received:
    0
    thank u
    Lindsay Lohan - Rumors MV (PO)

    [​IMG]

    Code:
    General
    Complete name                  : Lindsay Lohan - Rumors (PO).vob
    Format                         : MPEG-PS
    File size                      : 158 MiB
    Duration                       : 3mn 35s
    Overall bit rate               : 6 145 Kbps
    
    Video
    ID                             : 224 (0xE0)
    Format                         : MPEG Video
    Format version                 : Version 2
    Format profile                 : Main@Main
    Format settings, BVOP          : No
    Format settings, Matrix        : Default
    Format settings, GOP           : M=3, N=13
    Duration                       : 3mn 35s
    Bit rate                       : 4 500 Kbps
    Width                          : 720 pixels
    Height                         : 480 pixels
    Display aspect ratio           : 4:3
    Frame rate                     : 29.970 fps
    Standard                       : NTSC
    Color space                    : YUV
    Chroma subsampling             : 4:2:0
    Bit depth                      : 8 bits
    Scan type                      : Interlaced
    Scan order                     : Top Field First
    Compression mode               : Lossy
    Bits/(Pixel*Frame)             : 0.434
    Time code of first frame       : 00:05:37:24
    Time code source               : Group of pictures header
    Stream size                    : 115 MiB (73%)
    Color primaries                : BT.601 NTSC
    Transfer characteristics       : BT.601
    Matrix coefficients            : BT.601
    
    Audio
    ID                             : 189 (0xBD)-160 (0xA0)
    Format                         : PCM
    Format settings, Endianness    : Big
    Format settings, Sign          : Signed
    Muxing mode                    : DVD-Video
    Duration                       : 3mn 35s
    Bit rate mode                  : Constant
    Bit rate                       : 1 536 Kbps
    Channel(s)                     : 2 channels
    Sampling rate                  : 48.0 KHz
    Bit depth                      : 16 bits
    Stream size                    : 39.5 MiB (25%)

    ***Hidden content cannot be quoted.***

    Credit to the Original Capper
    [/QUOTE]
     
  6. giri

    giri Member

    Joined:
    Jun 10, 2016
    Messages:
    358
    Likes Received:
    15
    thx you!
     
  7. lyana94

    lyana94 Well-Known Member

    Joined:
    Jul 5, 2017
    Messages:
    1,543
    Likes Received:
    58
    hfjhfhvh,
     
  8. just_eddy

    just_eddy Member

    Joined:
    Jan 17, 2017
    Messages:
    69
    Likes Received:
    5
    thanks
     
  9. Luis Almeida

    Luis Almeida Well-Known Member

    Joined:
    Feb 4, 2015
    Messages:
    1,175
    Likes Received:
    63
  10. son69

    son69 Member

    Joined:
    May 31, 2016
    Messages:
    101
    Likes Received:
    5
    thanks
     
  11. Mason410

    Mason410 New Member

    Joined:
    Sep 3, 2016
    Messages:
    4
    Likes Received:
    3
  12. 3veronicas

    3veronicas Well-Known Member

    Joined:
    Aug 26, 2016
    Messages:
    2,065
    Likes Received:
    105
  13. jfsilva28

    jfsilva28 Active Member

    Joined:
    May 9, 2018
    Messages:
    682
    Likes Received:
    30
  14. markitomg

    markitomg Active Member

    Joined:
    May 24, 2016
    Messages:
    885
    Likes Received:
    94
    tnks 4 it
     
  15. timlecler

    timlecler Active Member

    Joined:
    May 19, 2018
    Messages:
    563
    Likes Received:
    38
  16. jerrmx

    jerrmx Active Member

    Joined:
    Sep 8, 2016
    Messages:
    810
    Likes Received:
    46
    thanks
     
  17. KrazyGlue

    KrazyGlue Member

    Joined:
    Jul 23, 2016
    Messages:
    52
    Likes Received:
    4
  18. minaze

    minaze Member

    Joined:
    Aug 4, 2018
    Messages:
    93
    Likes Received:
    0
    gracias
     
  19. Agentehernandezfge

    Agentehernandezfge New Member

    Joined:
    Sep 17, 2018
    Messages:
    9
    Likes Received:
    0
  20. notalolita783

    notalolita783 Member

    Joined:
    Jul 6, 2017
    Messages:
    46
    Likes Received:
    2