Lindsay Lohan - Rumors MV (PO)

Discussion in 'SD Live Performances' started by adam dark, Nov 14, 2014.

  1. adam dark

    adam dark Video Music Lover <3 V . I . P.

    Joined:
    Dec 5, 2013
    Messages:
    2,632
    Likes Received:
    5,273
    Lindsay Lohan - Rumors MV (PO)

    [​IMG]

    Code:
    General
    Complete name                  : Lindsay Lohan - Rumors (PO).vob
    Format                         : MPEG-PS
    File size                      : 158 MiB
    Duration                       : 3mn 35s
    Overall bit rate               : 6 145 Kbps
    
    Video
    ID                             : 224 (0xE0)
    Format                         : MPEG Video
    Format version                 : Version 2
    Format profile                 : Main@Main
    Format settings, BVOP          : No
    Format settings, Matrix        : Default
    Format settings, GOP           : M=3, N=13
    Duration                       : 3mn 35s
    Bit rate                       : 4 500 Kbps
    Width                          : 720 pixels
    Height                         : 480 pixels
    Display aspect ratio           : 4:3
    Frame rate                     : 29.970 fps
    Standard                       : NTSC
    Color space                    : YUV
    Chroma subsampling             : 4:2:0
    Bit depth                      : 8 bits
    Scan type                      : Interlaced
    Scan order                     : Top Field First
    Compression mode               : Lossy
    Bits/(Pixel*Frame)             : 0.434
    Time code of first frame       : 00:05:37:24
    Time code source               : Group of pictures header
    Stream size                    : 115 MiB (73%)
    Color primaries                : BT.601 NTSC
    Transfer characteristics       : BT.601
    Matrix coefficients            : BT.601
    
    Audio
    ID                             : 189 (0xBD)-160 (0xA0)
    Format                         : PCM
    Format settings, Endianness    : Big
    Format settings, Sign          : Signed
    Muxing mode                    : DVD-Video
    Duration                       : 3mn 35s
    Bit rate mode                  : Constant
    Bit rate                       : 1 536 Kbps
    Channel(s)                     : 2 channels
    Sampling rate                  : 48.0 KHz
    Bit depth                      : 16 bits
    Stream size                    : 39.5 MiB (25%)

    Hidden Content:
    You must either reply or click 'Like' to see the hidden information contained here.
    Credit to the Original Capper
     
    Last edited: Aug 15, 2016
  2. Loading...


  3. brian182

    brian182 Well-Known Member

    Joined:
    Oct 14, 2013
    Messages:
    2,027
    Likes Received:
    107
    thanks!
     
  4. adam dark

    adam dark Video Music Lover <3 V . I . P.

    Joined:
    Dec 5, 2013
    Messages:
    2,632
    Likes Received:
    5,273
    you're welcome "brian182"
     
  5. sk8erboi2

    sk8erboi2 Member

    Joined:
    Oct 20, 2014
    Messages:
    259
    Likes Received:
    1
    Thank you.
     
  6. adam dark

    adam dark Video Music Lover <3 V . I . P.

    Joined:
    Dec 5, 2013
    Messages:
    2,632
    Likes Received:
    5,273
    it's a pleasure "sk8erboi2"
     
  7. johymbim

    johymbim Member

    Joined:
    Jul 30, 2014
    Messages:
    540
    Likes Received:
    16
    thanks!
     
  8. quake2

    quake2 Well-Known Member

    Joined:
    Oct 11, 2014
    Messages:
    1,362
    Likes Received:
    111
  9. John

    John Member

    Joined:
    Oct 30, 2013
    Messages:
    501
    Likes Received:
    5
    thanks
     
  10. pinky

    pinky Well-Known Member

    Joined:
    Jun 27, 2015
    Messages:
    1,429
    Likes Received:
    54
    thank you :)
     
  11. edgar

    edgar Well-Known Member V . I . P.

    Joined:
    Oct 12, 2013
    Messages:
    1,912
    Likes Received:
    1,884
    Thank you so much
     
  12. Trop1cal

    Trop1cal Member

    Joined:
    Feb 5, 2015
    Messages:
    563
    Likes Received:
    14
    Thank you.
     
  13. Ju55

    Ju55 Active Member

    Joined:
    Jul 10, 2015
    Messages:
    816
    Likes Received:
    143
    thank you
     
  14. Snorom6

    Snorom6 Well-Known Member V . I . P. Uploader

    Joined:
    Dec 17, 2015
    Messages:
    4,248
    Likes Received:
    5,604
  15. qwert11

    qwert11 Active Member

    Joined:
    Nov 23, 2014
    Messages:
    1,070
    Likes Received:
    16
    thanks
     
  16. Rhapsonyx

    Rhapsonyx Active Member

    Joined:
    May 14, 2015
    Messages:
    579
    Likes Received:
    39
    OMG!!! THANK YOU SO MUCH!!!! :D :D :D :D :D :D :D
     
  17. skyisup

    skyisup Member

    Joined:
    Jul 21, 2016
    Messages:
    231
    Likes Received:
    1
    Thanks
     
  18. adam dark

    adam dark Video Music Lover <3 V . I . P.

    Joined:
    Dec 5, 2013
    Messages:
    2,632
    Likes Received:
    5,273
    Could any moderator move this post to the right section? I remember when I posted this video in the correct forum......please :)
     
  19. leonardol4e92

    leonardol4e92 Well-Known Member

    Joined:
    Dec 30, 2015
    Messages:
    1,290
    Likes Received:
    767
    Thank you
     
  20. GHN

    GHN Member

    Joined:
    Oct 27, 2014
    Messages:
    540
    Likes Received:
    15
    thanks
     
  21. dzenailyjohn

    dzenailyjohn Member

    Joined:
    Oct 21, 2015
    Messages:
    226
    Likes Received:
    15