WEB-RiP Liam Payne performs Strip That Down-TRL-October 11,2017-1080p

Discussion in 'HD Live Performances' started by harmonizer54, Oct 12, 2017.

  1. harmonizer54

    harmonizer54 Active Member

    Joined:
    Jul 21, 2016
    Messages:
    307
    Likes Received:
    240
    [​IMG]

    Code:
    General
    
    Complete name                  : C:\Users\Domčo\Desktop\Liam Payne performs Strip That Down-TRL-October 11,2017.mp4
    Format                         : MPEG-4
    Format profile                 : Base Media
    Codec ID                       : isom (isom/iso2/avc1/iso6/mp41)
    File size                      : 117 MiB
    Duration                       : 3 min 13 s
    Overall bit rate               : 5 074 kb/s
    Writing application            : Lavf57.76.100
    
    Video
    ID                             : 1
    Format                         : AVC
    Format/Info                    : Advanced Video Codec
    Format profile                 : [email protected]
    Format settings, CABAC         : Yes
    Format settings, RefFrames     : 4 frames
    Codec ID                       : avc1
    Codec ID/Info                  : Advanced Video Coding
    Duration                       : 3 min 13 s
    Bit rate                       : 4 940 kb/s
    Width                          : 1 920 pixels
    Height                         : 1 080 pixels
    Display aspect ratio           : 16:9
    Frame rate mode                : Variable
    Frame rate                     : 29.970 (30000/1001) FPS
    Minimum frame rate             : 29.412 FPS
    Maximum frame rate             : 30.303 FPS
    Color space                    : YUV
    Chroma subsampling             : 4:2:0
    Bit depth                      : 8 bits
    Scan type                      : Progressive
    Bits/(Pixel*Frame)             : 0.079
    Stream size                    : 114 MiB (97%)
    Writing library                : x264 core 129
    Encoding settings              : cabac=1 / ref=4 / deblock=1:0:0 / analyse=0x3:0x113 / me=umh / subme=10 / psy=1 / psy_rd=1.00:0.15 / mixed_ref=1 / me_range=32 / chroma_me=1 / trellis=2 / 8x8dct=1 / cqm=0 / deadzone=21,11 / fast_pskip=1 / chroma_qp_offset=-3 / threads=32 / lookahead_threads=2 / sliced_threads=0 / nr=0 / decimate=0 / interlaced=0 / bluray_compat=0 / constrained_intra=0 / bframes=3 / b_pyramid=0 / b_adapt=2 / b_bias=0 / direct=3 / weightb=1 / open_gop=0 / weightp=2 / keyint=60 / keyint_min=23 / scenecut=0 / intra_refresh=0 / rc_lookahead=60 / rc=crf / mbtree=1 / crf=19.0 / qcomp=0.60 / qpmin=10 / qpmax=51 / qpstep=4 / vbv_maxrate=5000 / vbv_bufsize=10000 / crf_max=0.0 / nal_hrd=none / ip_ratio=1.40 / aq=1:0.80
    
    Audio
    ID                             : 2
    Format                         : AAC
    Format/Info                    : Advanced Audio Codec
    Format profile                 : LTP
    Codec ID                       : 40
    Duration                       : 3 min 13 s
    Bit rate                       : 128 kb/s
    Channel(s)                     : 2 channels
    Sampling rate                  : 64.0 kHz
    Frame rate                     : 66.667 FPS (960 SPF)
    Compression mode               : Lossy
    Stream size                    : 2.95 MiB (3%)
    Default                        : Yes
    Alternate group                : 1
    
    
    Ripped from trl.mtv.com

    Hidden Content:
    You must reply before you can see the hidden data contained here.
     
    tf135 likes this.
  2. Loading...


  3. 3veronicas

    3veronicas Well-Known Member

    Joined:
    Aug 26, 2016
    Messages:
    1,373
    Likes Received:
    62
    Thanks!
     
  4. Pavulon

    Pavulon Well-Known Member

    Joined:
    Mar 22, 2016
    Messages:
    3,451
    Likes Received:
    397
    thanks
     
  5. giespinosa

    giespinosa Member

    Joined:
    Jul 2, 2017
    Messages:
    163
    Likes Received:
    4
  6. killers23

    killers23 Active Member

    Joined:
    Feb 27, 2015
    Messages:
    691
    Likes Received:
    92
  7. Maura

    Maura Well-Known Member

    Joined:
    Apr 7, 2014
    Messages:
    2,559
    Likes Received:
    79
    Thanks
     
  8. tf135

    tf135 Well-Known Member

    Joined:
    Nov 14, 2014
    Messages:
    2,487
    Likes Received:
    161
    thanks
     
  9. pinky2

    pinky2 Active Member

    Joined:
    Dec 12, 2015
    Messages:
    714
    Likes Received:
    99
    Thanks
     
  10. martin98

    martin98 Member

    Joined:
    Nov 11, 2016
    Messages:
    280
    Likes Received:
    12
    thanks
     
  11. frisby

    frisby Well-Known Member

    Joined:
    Nov 21, 2015
    Messages:
    1,135
    Likes Received:
    118
    thanks
     
  12. thinkingdualipa

    thinkingdualipa Member

    Joined:
    Jun 26, 2017
    Messages:
    234
    Likes Received:
    21
    thaaanks
     
  13. 601960928

    601960928 Member

    Joined:
    Jul 3, 2016
    Messages:
    188
    Likes Received:
    15
  14. aturner18

    aturner18 Well-Known Member

    Joined:
    Oct 2, 2014
    Messages:
    1,344
    Likes Received:
    126
    thanks I'm a tad disappointing what they turned TRL into
     
  15. zuiderheide

    zuiderheide Well-Known Member

    Joined:
    Nov 18, 2013
    Messages:
    2,062
    Likes Received:
    60
  16. misscoak

    misscoak Member

    Joined:
    Dec 22, 2016
    Messages:
    666
    Likes Received:
    4
  17. BsMx

    BsMx Member

    Joined:
    Oct 5, 2014
    Messages:
    147
    Likes Received:
    2
    thanks
     
  18. badgal

    badgal Member

    Joined:
    Sep 8, 2016
    Messages:
    129
    Likes Received:
    3
    Thanks.
     
  19. flickervinyl

    flickervinyl Member

    Joined:
    Nov 28, 2017
    Messages:
    45
    Likes Received:
    19
    :smilingimp:
     
  20. Tiago

    Tiago Well-Known Member

    Joined:
    Dec 7, 2013
    Messages:
    1,672
    Likes Received:
    29
    thanks
     
  21. puppiesandkittens

    puppiesandkittens Member

    Joined:
    Jun 19, 2014
    Messages:
    158
    Likes Received:
    8
    Thanks for Liam!