Lena - Satellite (Deluxe Music HD-1080i-DD2.0)-Olgold

Discussion in 'DELUXE MUSIC HD' started by Olgold, Aug 20, 2015.

  1. Olgold

    Olgold Well-Known Member Capper

    Joined:
    Aug 19, 2015
    Messages:
    386
    Likes Received:
    1,332
    [​IMG]
    General
    Format : MPEG-TS
    File size : 125 MiB
    Duration : 2mn 56s
    Overall bit rate mode : Variable
    Overall bit rate : 5 949 Kbps

    Video
    Format : AVC
    Format/Info : Advanced Video Codec
    Format profile : [email protected]
    Format settings, CABAC : Yes
    Format settings, ReFrames : 4 frames
    Duration : 2mn 55s
    Bit rate : 5 267 Kbps
    Width : 1 280 pixels
    Height : 1 080 pixels
    Display aspect ratio : 16:9
    Frame rate : 25.000 fps
    Standard : Component
    Color space : YUV
    Chroma subsampling : 4:2:0
    Bit depth : 8 bits
    Scan type : Interlaced
    Scan order : Top Field First
    Bits/(Pixel*Frame) : 0.152
    Stream size : 110 MiB (88%)
    Color range : Limited

    Audio
    Format : AC-3
    Format/Info : Audio Coding 3
    Mode extension : CM (complete main)
    Format settings, Endianness : Big
    Duration : 2mn 56s
    Bit rate mode : Constant
    Bit rate : 384 Kbps
    Channel(s) : 2 channels
    Channel positions : Front: L R
    Sampling rate : 48.0 KHz
    Compression mode : Lossy
    Delay relative to video : 194ms
    Stream size : 8.07 MiB (6%)
    Language : German

    Hidden Content:
    You must reply before you can see the hidden data contained here.
     
    gigidel, rhea, 777josem and 1 other person like this.
  2. Zatimi

    Zatimi Active Member

    Joined:
    Aug 27, 2014
    Messages:
    604
    Likes Received:
    67
    thanks a lot
     
  3. santa321

    santa321 Active Member

    Joined:
    Dec 7, 2013
    Messages:
    1,194
    Likes Received:
    22
    thank you
     
  4. rhea

    rhea Well-Known Member

    Joined:
    Jan 6, 2014
    Messages:
    5,406
    Likes Received:
    265
    thank you so much :)
     
  5. Grailen

    Grailen Well-Known Member

    Joined:
    Oct 8, 2013
    Messages:
    549
    Likes Received:
    582
    thank you
     
  6. Crusha

    Crusha Well-Known Member Capper

    Joined:
    Oct 15, 2014
    Messages:
    2,350
    Likes Received:
    2,176
    thank you
     
  7. arnold

    arnold Member

    Joined:
    Oct 29, 2014
    Messages:
    232
    Likes Received:
    3
    thank you!
     
  8. yukides

    yukides Active Member

    Joined:
    Nov 15, 2013
    Messages:
    163
    Likes Received:
    79
    Thank you
     
  9. mariellisaa

    mariellisaa Member

    Joined:
    Jan 17, 2016
    Messages:
    91
    Likes Received:
    7
    cool. thanks <3
     
  10. shunic

    shunic Member

    Joined:
    Feb 13, 2016
    Messages:
    80
    Likes Received:
    0
    Thanks =)
     
  11. Pavulon

    Pavulon Well-Known Member

    Joined:
    Mar 22, 2016
    Messages:
    1,426
    Likes Received:
    43
    thanks
     
  12. gigidel

    gigidel New Member

    Joined:
    Feb 1, 2015
    Messages:
    8
    Likes Received:
    0
    Than
    Ks
    Thanks!
     
  13. seregil

    seregil Member

    Joined:
    Sep 5, 2014
    Messages:
    103
    Likes Received:
    0
    thanks
     
  14. lululudek

    lululudek New Member

    Joined:
    Jan 10, 2017
    Messages:
    20
    Likes Received:
    0
    thanks very
     
  15. robinrichter

    robinrichter New Member

    Joined:
    Apr 10, 2016
    Messages:
    12
    Likes Received:
    0
    thanks