BLU-RAY Leehom Wang & Westlife - You Raise Me Up (Heroes of Earth Live Concert)(2006)(Blu-ray)

Discussion in 'BLU-RAY' started by weiweiliangyan, Jun 8, 2014.

  1. weiweiliangyan

    weiweiliangyan Well-Known Member V . I . P.

    Joined:
    Oct 3, 2013
    Messages:
    559
    Likes Received:
    7,825
    [​IMG]

    Code:
    Complete name                  : Leehom Wang & Westlife - You Raise Me Up (Heroes of Earth Live Concert)(2006)(Blu-ray).m2ts
    Format                         : BDAV
    Format/Info                    : Blu-ray Video
    File size                      : 1.15 GiB
    Duration                       : 5mn 19s
    Overall bit rate mode          : Variable
    Overall bit rate               : 30.9 Mbps
    Maximum Overall bit rate       : 35.5 Mbps
    
    Video
    ID                             : 4113 (0x1011)
    Menu ID                        : 1 (0x1)
    Format                         : MPEG Video
    Format version                 : Version 2
    Format profile                 : Main@High
    Format settings, BVOP          : No
    Format settings, Matrix        : Custom
    Format settings, GOP           : Variable
    Codec ID                       : 2
    Duration                       : 5mn 19s
    Bit rate mode                  : Variable
    Bit rate                       : 20.4 Mbps
    Maximum bit rate               : 37.0 Mbps
    Width                          : 1 920 pixels
    Height                         : 1 080 pixels
    Display aspect ratio           : 16:9
    Frame rate                     : 29.970 fps
    Color space                    : YUV
    Chroma subsampling             : 4:2:0
    Bit depth                      : 8 bits
    Scan type                      : Interlaced
    Scan order                     : Top Field First
    Compression mode               : Lossy
    Bits/(Pixel*Frame)             : 0.329
    Time code of first frame       : 01:00:45;00
    Time code source               : Group of pictures header
    Stream size                    : 779 MiB (66%)
    
    Audio #1
    ID                             : 4352 (0x1100)
    Menu ID                        : 1 (0x1)
    Format                         : PCM
    Format settings, Endianness    : Big
    Format settings, Sign          : Signed
    Muxing mode                    : Blu-ray
    Codec ID                       : 128
    Duration                       : 5mn 19s
    Bit rate mode                  : Constant
    Bit rate                       : 4 608 Kbps
    Channel(s)                     : 2 channels
    Channel positions              : Front: L R
    Sampling rate                  : 96.0 KHz
    Bit depth                      : 24 bits
    Stream size                    : 176 MiB (15%)
    Language                       : Chinese
    
    Audio #2
    ID                             : 4353 (0x1101)
    Menu ID                        : 1 (0x1)
    Format                         : PCM
    Format settings, Endianness    : Big
    Format settings, Sign          : Signed
    Muxing mode                    : Blu-ray
    Codec ID                       : 128
    Duration                       : 5mn 19s
    Bit rate mode                  : Constant
    Bit rate                       : 4 608 Kbps
    Channel(s)                     : 6 channels
    Channel positions              : Front: L C R, Side: L R, LFE
    Sampling rate                  : 48.0 KHz
    Bit depth                      : 16 bits
    Stream size                    : 176 MiB (15%)
    Language                       : Chinese
    
    Text #1
    ID                             : 4608 (0x1200)
    Menu ID                        : 1 (0x1)
    Format                         : PGS
    Codec ID                       : 144
    Duration                       : 5mn 11s
    Delay relative to video        : 5s 806ms
    Language                       : Japanese
    
    Text #2
    ID                             : 4609 (0x1201)
    Menu ID                        : 1 (0x1)
    Format                         : PGS
    Codec ID                       : 144
    Language                       : Japanese
    
    Hidden Content:
    You must reply before you can see the hidden data contained here.
     
    Last edited by a moderator: Nov 8, 2015
    1D4EVER, alex, bayram and 7 others like this.
  2. thiagodema

    thiagodema Well-Known Member

    Joined:
    Jan 19, 2014
    Messages:
    761
    Likes Received:
    416
  3. mdrf1

    mdrf1 Member

    Joined:
    May 17, 2014
    Messages:
    329
    Likes Received:
    27
    i like this song!
     
  4. talata

    talata Member

    Joined:
    Nov 14, 2013
    Messages:
    280
    Likes Received:
    7
    So Thanks!
     
  5. rhea

    rhea Well-Known Member

    Joined:
    Jan 6, 2014
    Messages:
    8,195
    Likes Received:
    1,160
    thanks
     
  6. tsm897

    tsm897 Member

    Joined:
    Apr 16, 2014
    Messages:
    147
    Likes Received:
    5
  7. multimediafm

    multimediafm Well-Known Member Donor

    Joined:
    Mar 27, 2014
    Messages:
    13,380
    Likes Received:
    1,058
  8. Angus

    Angus Well-Known Member

    Joined:
    Dec 18, 2013
    Messages:
    205
    Likes Received:
    318
  9. Vjeans

    Vjeans Well-Known Member V . I . P.

    Joined:
    May 10, 2014
    Messages:
    1,288
    Likes Received:
    4,059
    Thank you so much!
     
  10. ahuyblog

    ahuyblog Member

    Joined:
    Aug 22, 2014
    Messages:
    43
    Likes Received:
    0
    thank u! :)
     
  11. kissnicky

    kissnicky New Member

    Joined:
    Sep 15, 2014
    Messages:
    4
    Likes Received:
    0
    thanks.................................
     
  12. lotfi hammouda

    lotfi hammouda Active Member

    Joined:
    Jun 23, 2014
    Messages:
    351
    Likes Received:
    33
     
    bayram likes this.
  13. bayram

    bayram Member

    Joined:
    Feb 9, 2014
    Messages:
    201
    Likes Received:
    4
    thanks
     
  14. alex

    alex Well-Known Member

    Joined:
    Nov 21, 2013
    Messages:
    4,597
    Likes Received:
    401
  15. Jeremy017

    Jeremy017 Member

    Joined:
    Sep 5, 2014
    Messages:
    186
    Likes Received:
    0
    wow 2006!
     
  16. channel003

    channel003 Well-Known Member

    Joined:
    Nov 23, 2013
    Messages:
    726
    Likes Received:
    375
    thank you
     
  17. amirdvb

    amirdvb Member

    Joined:
    Feb 1, 2015
    Messages:
    582
    Likes Received:
    19
    thankssssssss man
     
  18. amirdvb

    amirdvb Member

    Joined:
    Feb 1, 2015
    Messages:
    582
    Likes Received:
    19
    thank you
     
  19. gotik19

    gotik19 Member

    Joined:
    Oct 25, 2013
    Messages:
    62
    Likes Received:
    15
    thanks[​IMG]

    Code:
    Complete name                  : Leehom Wang & Westlife - You Raise Me Up (Heroes of Earth Live Concert)(2006)(Blu-ray).m2ts
    Format                         : BDAV
    Format/Info                    : Blu-ray Video
    File size                      : 1.15 GiB
    Duration                       : 5mn 19s
    Overall bit rate mode          : Variable
    Overall bit rate               : 30.9 Mbps
    Maximum Overall bit rate       : 35.5 Mbps
     
    Video
    ID                             : 4113 (0x1011)
    Menu ID                        : 1 (0x1)
    Format                         : MPEG Video
    Format version                 : Version 2
    Format profile                 : Main@High
    Format settings, BVOP          : No
    Format settings, Matrix        : Custom
    Format settings, GOP           : Variable
    Codec ID                       : 2
    Duration                       : 5mn 19s
    Bit rate mode                  : Variable
    Bit rate                       : 20.4 Mbps
    Maximum bit rate               : 37.0 Mbps
    Width                          : 1 920 pixels
    Height                         : 1 080 pixels
    Display aspect ratio           : 16:9
    Frame rate                     : 29.970 fps
    Color space                    : YUV
    Chroma subsampling             : 4:2:0
    Bit depth                      : 8 bits
    Scan type                      : Interlaced
    Scan order                     : Top Field First
    Compression mode               : Lossy
    Bits/(Pixel*Frame)             : 0.329
    Time code of first frame       : 01:00:45;00
    Time code source               : Group of pictures header
    Stream size                    : 779 MiB (66%)
     
    Audio #1
    ID                             : 4352 (0x1100)
    Menu ID                        : 1 (0x1)
    Format                         : PCM
    Format settings, Endianness    : Big
    Format settings, Sign          : Signed
    Muxing mode                    : Blu-ray
    Codec ID                       : 128
    Duration                       : 5mn 19s
    Bit rate mode                  : Constant
    Bit rate                       : 4 608 Kbps
    Channel(s)                     : 2 channels
    Channel positions              : Front: L R
    Sampling rate                  : 96.0 KHz
    Bit depth                      : 24 bits
    Stream size                    : 176 MiB (15%)
    Language                       : Chinese
     
    Audio #2
    ID                             : 4353 (0x1101)
    Menu ID                        : 1 (0x1)
    Format                         : PCM
    Format settings, Endianness    : Big
    Format settings, Sign          : Signed
    Muxing mode                    : Blu-ray
    Codec ID                       : 128
    Duration                       : 5mn 19s
    Bit rate mode                  : Constant
    Bit rate                       : 4 608 Kbps
    Channel(s)                     : 6 channels
    Channel positions              : Front: L C R, Side: L R, LFE
    Sampling rate                  : 48.0 KHz
    Bit depth                      : 16 bits
    Stream size                    : 176 MiB (15%)
    Language                       : Chinese
     
    Text #1
    ID                             : 4608 (0x1200)
    Menu ID                        : 1 (0x1)
    Format                         : PGS
    Codec ID                       : 144
    Duration                       : 5mn 11s
    Delay relative to video        : 5s 806ms
    Language                       : Japanese
     
    Text #2
    ID                             : 4609 (0x1201)
    Menu ID                        : 1 (0x1)
    Format                         : PGS
    Codec ID                       : 144
    Language                       : Japanese
    
    ***Hidden content cannot be quoted.***[/QUOTE]
     
  20. Snorom6

    Snorom6 Well-Known Member V . I . P. Uploader

    Joined:
    Dec 17, 2015
    Messages:
    4,246
    Likes Received:
    6,162