DVD LeAnn Rimes - The Complete DVD Collection x19 [VOB Files]

Discussion in 'SD' started by claudio1301, Nov 21, 2020.

  1. claudio1301

    claudio1301 Well-Known Member V . I . P.

    Joined:
    Oct 2, 2018
    Messages:
    1,488
    Likes Received:
    3,366
    Host: Mediafire

    [​IMG]
    01. Blue
    02. One Way Ticket (Because I Can)
    03. The Light In Your Eyes
    04. How Do I Live
    05. You Light Up My Life
    06. Commitment
    07. I Need You
    08. Can't Fight The Moonlight (Live w Playback)
    09. But I Do Love You (Live)
    10. Life Goes On
    11. Suddenly
    12. We Can
    13. The Last Thing On My Mind (With Ronan Keating)
    14. Nothin Bout Love Makes Sense
    15. Probably Wouldn't Be This Way
    16. Something's Gotta Give
    17. And It Feels Like
    18. Strong
    19. Everybody's Someone (With Brian McFadden)


    01. Blue
    [​IMG]
    Code:
    General
    Complete name                  : LeAnn Rimes - The Complete DVD Collection (VOB Files)\LeAnn Rimes - Blue (The Complete DVD Collection).VOB
    Format                         : MPEG-PS
    File size                      : 187 MiB
    Duration                       : 3 min 0 s
    Overall bit rate mode          : Constant
    Overall bit rate               : 8 697 kb/s
    
    Video
    ID                             : 224 (0xE0)
    Format                         : MPEG Video
    Format version                 : Version 2
    Format profile                 : Main@Main
    Format settings                : CustomMatrix / BVOP
    Format settings, BVOP          : Yes
    Format settings, Matrix        : Custom
    Format settings, GOP           : M=3, N=15
    Format settings, picture struc : Frame
    Duration                       : 3 min 0 s
    Bit rate mode                  : Constant
    Bit rate                       : 7 000 kb/s
    Width                          : 720 pixels
    Height                         : 480 pixels
    Display aspect ratio           : 4:3
    Frame rate                     : 29.970 (30000/1001) FPS
    Standard                       : NTSC
    Color space                    : YUV
    Chroma subsampling             : 4:2:0
    Bit depth                      : 8 bits
    Scan type                      : Interlaced
    Scan order                     : Bottom Field First
    Compression mode               : Lossy
    Bits/(Pixel*Frame)             : 0.676
    Time code of first frame       : 00:00:00:00
    Time code source               : Group of pictures header
    GOP, Open/Closed               : Closed
    Stream size                    : 151 MiB (80%)
    
    Audio
    ID                             : 189 (0xBD)-160 (0xA0)
    Format                         : PCM
    Format settings                : Big / Signed
    Muxing mode                    : DVD-Video
    Duration                       : 3 min 0 s
    Bit rate mode                  : Constant
    Bit rate                       : 1 536 kb/s
    Channel(s)                     : 2 channels
    Sampling rate                  : 48.0 kHz
    Bit depth                      : 16 bits
    Stream size                    : 33.1 MiB (18%)
    
    Menu
    Hidden Content:
    You must reply before you can see the hidden data contained here.
    02. One Way Ticket (Because I Can)
    [​IMG]
    Code:
    General
    Complete name                  : LeAnn Rimes - One Way Ticket (Because I Can) (The Complete DVD Collection).VOB
    Format                         : MPEG-PS
    File size                      : 229 MiB
    Duration                       : 3 min 40 s
    Overall bit rate mode          : Constant
    Overall bit rate               : 8 698 kb/s
    
    Video
    ID                             : 224 (0xE0)
    Format                         : MPEG Video
    Format version                 : Version 2
    Format profile                 : Main@Main
    Format settings                : CustomMatrix / BVOP
    Format settings, BVOP          : Yes
    Format settings, Matrix        : Custom
    Format settings, GOP           : Variable
    Format settings, picture struc : Frame
    Duration                       : 3 min 40 s
    Bit rate mode                  : Constant
    Bit rate                       : 7 000 kb/s
    Width                          : 720 pixels
    Height                         : 480 pixels
    Display aspect ratio           : 4:3
    Frame rate                     : 29.970 (30000/1001) FPS
    Standard                       : NTSC
    Color space                    : YUV
    Chroma subsampling             : 4:2:0
    Bit depth                      : 8 bits
    Scan type                      : Interlaced
    Scan order                     : Bottom Field First
    Compression mode               : Lossy
    Bits/(Pixel*Frame)             : 0.676
    Time code of first frame       : 00:00:00:00
    Time code source               : Group of pictures header
    GOP, Open/Closed               : Closed
    Stream size                    : 184 MiB (80%)
    
    Audio
    ID                             : 189 (0xBD)-160 (0xA0)
    Format                         : PCM
    Format settings                : Big / Signed
    Muxing mode                    : DVD-Video
    Duration                       : 3 min 40 s
    Bit rate mode                  : Constant
    Bit rate                       : 1 536 kb/s
    Channel(s)                     : 2 channels
    Sampling rate                  : 48.0 kHz
    Bit depth                      : 16 bits
    Stream size                    : 40.4 MiB (18%)
    
    Menu
    Hidden Content:
    You must reply before you can see the hidden data contained here.
    03. The Light In Your Eyes
    [​IMG]
    Code:
    General
    Complete name                  : LeAnn Rimes - The Light In Your Eyes (The Complete DVD Collection).VOB
    Format                         : MPEG-PS
    File size                      : 209 MiB
    Duration                       : 3 min 21 s
    Overall bit rate mode          : Constant
    Overall bit rate               : 8 697 kb/s
    
    Video
    ID                             : 224 (0xE0)
    Format                         : MPEG Video
    Format version                 : Version 2
    Format profile                 : Main@Main
    Format settings                : CustomMatrix / BVOP
    Format settings, BVOP          : Yes
    Format settings, Matrix        : Custom
    Format settings, GOP           : Variable
    Format settings, picture struc : Frame
    Duration                       : 3 min 21 s
    Bit rate mode                  : Constant
    Bit rate                       : 7 000 kb/s
    Width                          : 720 pixels
    Height                         : 480 pixels
    Display aspect ratio           : 4:3
    Frame rate                     : 29.970 (30000/1001) FPS
    Standard                       : NTSC
    Color space                    : YUV
    Chroma subsampling             : 4:2:0
    Bit depth                      : 8 bits
    Scan type                      : Interlaced
    Scan order                     : Bottom Field First
    Compression mode               : Lossy
    Bits/(Pixel*Frame)             : 0.676
    Time code of first frame       : 00:00:00:00
    Time code source               : Group of pictures header
    GOP, Open/Closed               : Open
    GOP, Open/Closed of first fram : Closed
    Stream size                    : 168 MiB (80%)
    
    Audio
    ID                             : 189 (0xBD)-160 (0xA0)
    Format                         : PCM
    Format settings                : Big / Signed
    Muxing mode                    : DVD-Video
    Duration                       : 3 min 21 s
    Bit rate mode                  : Constant
    Bit rate                       : 1 536 kb/s
    Channel(s)                     : 2 channels
    Sampling rate                  : 48.0 kHz
    Bit depth                      : 16 bits
    Stream size                    : 36.9 MiB (18%)
    
    Menu
    Hidden Content:
    You must reply before you can see the hidden data contained here.
    04. How Do I Live
    [​IMG]
    Code:
    General
    Complete name                  : LeAnn Rimes - How Do I Live (The Complete DVD Collection).VOB
    Format                         : MPEG-PS
    File size                      : 278 MiB
    Duration                       : 4 min 28 s
    Overall bit rate mode          : Constant
    Overall bit rate               : 8 695 kb/s
    
    Video
    ID                             : 224 (0xE0)
    Format                         : MPEG Video
    Format version                 : Version 2
    Format profile                 : Main@Main
    Format settings                : CustomMatrix / BVOP
    Format settings, BVOP          : Yes
    Format settings, Matrix        : Custom
    Format settings, GOP           : M=3, N=15
    Format settings, picture struc : Frame
    Duration                       : 4 min 28 s
    Bit rate mode                  : Constant
    Bit rate                       : 7 000 kb/s
    Width                          : 720 pixels
    Height                         : 480 pixels
    Display aspect ratio           : 4:3
    Frame rate                     : 29.970 (30000/1001) FPS
    Standard                       : NTSC
    Color space                    : YUV
    Chroma subsampling             : 4:2:0
    Bit depth                      : 8 bits
    Scan type                      : Interlaced
    Scan order                     : Bottom Field First
    Compression mode               : Lossy
    Bits/(Pixel*Frame)             : 0.676
    Time code of first frame       : 00:00:00:00
    Time code source               : Group of pictures header
    GOP, Open/Closed               : Closed
    Stream size                    : 223 MiB (80%)
    
    Audio
    ID                             : 189 (0xBD)-160 (0xA0)
    Format                         : PCM
    Format settings                : Big / Signed
    Muxing mode                    : DVD-Video
    Duration                       : 4 min 28 s
    Bit rate mode                  : Constant
    Bit rate                       : 1 536 kb/s
    Channel(s)                     : 2 channels
    Sampling rate                  : 48.0 kHz
    Bit depth                      : 16 bits
    Stream size                    : 49.1 MiB (18%)
    
    Menu
    Hidden Content:
    You must reply before you can see the hidden data contained here.
    05. You Light Up My Life
    [​IMG]
    Code:
    General
    Complete name                  : LeAnn Rimes - You Light Up My Life (The Complete DVD Collection).VOB
    Format                         : MPEG-PS
    File size                      : 227 MiB
    Duration                       : 3 min 38 s
    Overall bit rate mode          : Constant
    Overall bit rate               : 8 696 kb/s
    
    Video
    ID                             : 224 (0xE0)
    Format                         : MPEG Video
    Format version                 : Version 2
    Format profile                 : Main@Main
    Format settings                : CustomMatrix / BVOP
    Format settings, BVOP          : Yes
    Format settings, Matrix        : Custom
    Format settings, GOP           : M=3, N=15
    Format settings, picture struc : Frame
    Duration                       : 3 min 38 s
    Bit rate mode                  : Constant
    Bit rate                       : 7 000 kb/s
    Width                          : 720 pixels
    Height                         : 480 pixels
    Display aspect ratio           : 4:3
    Frame rate                     : 29.970 (30000/1001) FPS
    Standard                       : NTSC
    Color space                    : YUV
    Chroma subsampling             : 4:2:0
    Bit depth                      : 8 bits
    Scan type                      : Interlaced
    Scan order                     : Bottom Field First
    Compression mode               : Lossy
    Bits/(Pixel*Frame)             : 0.676
    Time code of first frame       : 00:00:00:00
    Time code source               : Group of pictures header
    GOP, Open/Closed               : Closed
    Stream size                    : 182 MiB (80%)
    
    Audio
    ID                             : 189 (0xBD)-160 (0xA0)
    Format                         : PCM
    Format settings                : Big / Signed
    Muxing mode                    : DVD-Video
    Duration                       : 3 min 38 s
    Bit rate mode                  : Constant
    Bit rate                       : 1 536 kb/s
    Channel(s)                     : 2 channels
    Sampling rate                  : 48.0 kHz
    Bit depth                      : 16 bits
    Stream size                    : 40.1 MiB (18%)
    
    Menu
    Hidden Content:
    You must reply before you can see the hidden data contained here.
    06. Commitment
    [​IMG]
    Code:
    General
    Complete name                  : LeAnn Rimes - Commitment (The Complete DVD Collection).VOB
    Format                         : MPEG-PS
    File size                      : 274 MiB
    Duration                       : 4 min 24 s
    Overall bit rate mode          : Constant
    Overall bit rate               : 8 698 kb/s
    
    Video
    ID                             : 224 (0xE0)
    Format                         : MPEG Video
    Format version                 : Version 2
    Format profile                 : Main@Main
    Format settings                : CustomMatrix / BVOP
    Format settings, BVOP          : Yes
    Format settings, Matrix        : Custom
    Format settings, GOP           : Variable
    Format settings, picture struc : Frame
    Duration                       : 4 min 24 s
    Bit rate mode                  : Constant
    Bit rate                       : 7 000 kb/s
    Width                          : 720 pixels
    Height                         : 480 pixels
    Display aspect ratio           : 4:3
    Frame rate                     : 29.970 (30000/1001) FPS
    Standard                       : NTSC
    Color space                    : YUV
    Chroma subsampling             : 4:2:0
    Bit depth                      : 8 bits
    Scan type                      : Interlaced
    Scan order                     : Bottom Field First
    Compression mode               : Lossy
    Bits/(Pixel*Frame)             : 0.676
    Time code of first frame       : 00:00:00:00
    Time code source               : Group of pictures header
    GOP, Open/Closed               : Closed
    Stream size                    : 220 MiB (80%)
    
    Audio
    ID                             : 189 (0xBD)-160 (0xA0)
    Format                         : PCM
    Format settings                : Big / Signed
    Muxing mode                    : DVD-Video
    Duration                       : 4 min 24 s
    Bit rate mode                  : Constant
    Bit rate                       : 1 536 kb/s
    Channel(s)                     : 2 channels
    Sampling rate                  : 48.0 kHz
    Bit depth                      : 16 bits
    Stream size                    : 48.4 MiB (18%)
    
    Menu
    Hidden Content:
    You must reply before you can see the hidden data contained here.
    07. I Need You
    [​IMG]
    Code:
    General
    Complete name                  : LeAnn Rimes - I Need You (The Complete DVD Collection).VOB
    Format                         : MPEG-PS
    File size                      : 229 MiB
    Duration                       : 3 min 41 s
    Overall bit rate mode          : Constant
    Overall bit rate               : 8 696 kb/s
    
    Video
    ID                             : 224 (0xE0)
    Format                         : MPEG Video
    Format version                 : Version 2
    Format profile                 : Main@Main
    Format settings                : CustomMatrix / BVOP
    Format settings, BVOP          : Yes
    Format settings, Matrix        : Custom
    Format settings, GOP           : M=3, N=15
    Format settings, picture struc : Frame
    Duration                       : 3 min 41 s
    Bit rate mode                  : Constant
    Bit rate                       : 7 000 kb/s
    Width                          : 720 pixels
    Height                         : 480 pixels
    Display aspect ratio           : 4:3
    Frame rate                     : 29.970 (30000/1001) FPS
    Standard                       : NTSC
    Color space                    : YUV
    Chroma subsampling             : 4:2:0
    Bit depth                      : 8 bits
    Scan type                      : Interlaced
    Scan order                     : Bottom Field First
    Compression mode               : Lossy
    Bits/(Pixel*Frame)             : 0.676
    Time code of first frame       : 00:00:00:00
    Time code source               : Group of pictures header
    GOP, Open/Closed               : Closed
    Stream size                    : 184 MiB (80%)
    
    Audio
    ID                             : 189 (0xBD)-160 (0xA0)
    Format                         : PCM
    Format settings                : Big / Signed
    Muxing mode                    : DVD-Video
    Duration                       : 3 min 41 s
    Bit rate mode                  : Constant
    Bit rate                       : 1 536 kb/s
    Channel(s)                     : 2 channels
    Sampling rate                  : 48.0 kHz
    Bit depth                      : 16 bits
    Stream size                    : 40.5 MiB (18%)
    
    Menu
    Hidden Content:
    You must reply before you can see the hidden data contained here.
    08. Can't Fight The Moonlight (Live/Playback)
    [​IMG]
    Code:
    General
    Complete name                  : LeAnn Rimes - Can't Fight The Moonlight (Live W Playback) (The Complete DVD Collection).VOB
    Format                         : MPEG-PS
    File size                      : 221 MiB
    Duration                       : 3 min 33 s
    Overall bit rate mode          : Constant
    Overall bit rate               : 8 695 kb/s
    
    Video
    ID                             : 224 (0xE0)
    Format                         : MPEG Video
    Format version                 : Version 2
    Format profile                 : Main@Main
    Format settings                : CustomMatrix / BVOP
    Format settings, BVOP          : Yes
    Format settings, Matrix        : Custom
    Format settings, GOP           : Variable
    Format settings, picture struc : Frame
    Duration                       : 3 min 33 s
    Bit rate mode                  : Constant
    Bit rate                       : 7 000 kb/s
    Width                          : 720 pixels
    Height                         : 480 pixels
    Display aspect ratio           : 4:3
    Frame rate                     : 29.970 (30000/1001) FPS
    Standard                       : NTSC
    Color space                    : YUV
    Chroma subsampling             : 4:2:0
    Bit depth                      : 8 bits
    Scan type                      : Interlaced
    Scan order                     : Bottom Field First
    Compression mode               : Lossy
    Bits/(Pixel*Frame)             : 0.676
    Time code of first frame       : 00:00:00:00
    Time code source               : Group of pictures header
    GOP, Open/Closed               : Closed
    Stream size                    : 178 MiB (80%)
    
    Audio
    ID                             : 189 (0xBD)-160 (0xA0)
    Format                         : PCM
    Format settings                : Big / Signed
    Muxing mode                    : DVD-Video
    Duration                       : 3 min 33 s
    Bit rate mode                  : Constant
    Bit rate                       : 1 536 kb/s
    Channel(s)                     : 2 channels
    Sampling rate                  : 48.0 kHz
    Bit depth                      : 16 bits
    Stream size                    : 39.1 MiB (18%)
    
    Menu
    Hidden Content:
    You must reply before you can see the hidden data contained here.
    09. But I Do Love You (Live)
    [​IMG]
    Code:
    General
    Complete name                  : LeAnn Rimes - But I Do Love You (Live) (The Complete DVD Collection).VOB
    Format                         : MPEG-PS
    File size                      : 189 MiB
    Duration                       : 3 min 2 s
    Overall bit rate mode          : Constant
    Overall bit rate               : 8 695 kb/s
    
    Video
    ID                             : 224 (0xE0)
    Format                         : MPEG Video
    Format version                 : Version 2
    Format profile                 : Main@Main
    Format settings                : CustomMatrix / BVOP
    Format settings, BVOP          : Yes
    Format settings, Matrix        : Custom
    Format settings, GOP           : M=3, N=15
    Format settings, picture struc : Frame
    Duration                       : 3 min 2 s
    Bit rate mode                  : Constant
    Bit rate                       : 7 000 kb/s
    Width                          : 720 pixels
    Height                         : 480 pixels
    Display aspect ratio           : 4:3
    Frame rate                     : 29.970 (30000/1001) FPS
    Standard                       : NTSC
    Color space                    : YUV
    Chroma subsampling             : 4:2:0
    Bit depth                      : 8 bits
    Scan type                      : Interlaced
    Scan order                     : Bottom Field First
    Compression mode               : Lossy
    Bits/(Pixel*Frame)             : 0.676
    Time code of first frame       : 00:00:00:00
    Time code source               : Group of pictures header
    GOP, Open/Closed               : Closed
    Stream size                    : 152 MiB (80%)
    
    Audio
    ID                             : 189 (0xBD)-160 (0xA0)
    Format                         : PCM
    Format settings                : Big / Signed
    Muxing mode                    : DVD-Video
    Duration                       : 3 min 2 s
    Bit rate mode                  : Constant
    Bit rate                       : 1 536 kb/s
    Channel(s)                     : 2 channels
    Sampling rate                  : 48.0 kHz
    Bit depth                      : 16 bits
    Stream size                    : 33.4 MiB (18%)
    
    Menu
    Hidden Content:
    You must reply before you can see the hidden data contained here.
    10. Life Goes On
    [​IMG]
    Code:
    General
    Complete name                  : LeAnn Rimes - Life Goes On (The Complete DVD Collection).VOB
    Format                         : MPEG-PS
    File size                      : 220 MiB
    Duration                       : 3 min 32 s
    Overall bit rate mode          : Constant
    Overall bit rate               : 8 698 kb/s
    
    Video
    ID                             : 224 (0xE0)
    Format                         : MPEG Video
    Format version                 : Version 2
    Format profile                 : Main@Main
    Format settings                : CustomMatrix / BVOP
    Format settings, BVOP          : Yes
    Format settings, Matrix        : Custom
    Format settings, GOP           : Variable
    Format settings, picture struc : Frame
    Duration                       : 3 min 32 s
    Bit rate mode                  : Constant
    Bit rate                       : 7 000 kb/s
    Width                          : 720 pixels
    Height                         : 480 pixels
    Display aspect ratio           : 4:3
    Frame rate                     : 29.970 (30000/1001) FPS
    Standard                       : NTSC
    Color space                    : YUV
    Chroma subsampling             : 4:2:0
    Bit depth                      : 8 bits
    Scan type                      : Interlaced
    Scan order                     : Bottom Field First
    Compression mode               : Lossy
    Bits/(Pixel*Frame)             : 0.676
    Time code of first frame       : 00:00:00:00
    Time code source               : Group of pictures header
    GOP, Open/Closed               : Closed
    Stream size                    : 177 MiB (80%)
    
    Audio
    ID                             : 189 (0xBD)-160 (0xA0)
    Format                         : PCM
    Format settings                : Big / Signed
    Muxing mode                    : DVD-Video
    Duration                       : 3 min 32 s
    Bit rate mode                  : Constant
    Bit rate                       : 1 536 kb/s
    Channel(s)                     : 2 channels
    Sampling rate                  : 48.0 kHz
    Bit depth                      : 16 bits
    Stream size                    : 38.9 MiB (18%)
    
    Menu
    Hidden Content:
    You must reply before you can see the hidden data contained here.
    11. Suddenly
    [​IMG]
    Code:
    General
    Complete name                  : LeAnn Rimes - Suddenly (The Complete DVD Collection).VOB
    Format                         : MPEG-PS
    File size                      : 264 MiB
    Duration                       : 4 min 0 s
    Overall bit rate mode          : Constant
    Overall bit rate               : 9 200 kb/s
    
    Video
    ID                             : 224 (0xE0)
    Format                         : MPEG Video
    Format version                 : Version 2
    Format profile                 : Main@Main
    Format settings                : CustomMatrix / BVOP
    Format settings, BVOP          : Yes
    Format settings, Matrix        : Custom
    Format settings, GOP           : Variable
    Format settings, picture struc : Frame
    Duration                       : 4 min 0 s
    Bit rate mode                  : Constant
    Bit rate                       : 7 500 kb/s
    Width                          : 720 pixels
    Height                         : 480 pixels
    Display aspect ratio           : 4:3
    Frame rate                     : 29.970 (30000/1001) FPS
    Standard                       : NTSC
    Color space                    : YUV
    Chroma subsampling             : 4:2:0
    Bit depth                      : 8 bits
    Scan type                      : Interlaced
    Scan order                     : Bottom Field First
    Compression mode               : Lossy
    Bits/(Pixel*Frame)             : 0.724
    Time code of first frame       : 00:00:00:00
    Time code source               : Group of pictures header
    Stream size                    : 215 MiB (81%)
    
    Audio
    ID                             : 189 (0xBD)-160 (0xA0)
    Format                         : PCM
    Format settings                : Big / Signed
    Muxing mode                    : DVD-Video
    Duration                       : 4 min 0 s
    Bit rate mode                  : Constant
    Bit rate                       : 1 536 kb/s
    Channel(s)                     : 2 channels
    Sampling rate                  : 48.0 kHz
    Bit depth                      : 16 bits
    Stream size                    : 44.1 MiB (17%)
    
    Menu
    Hidden Content:
    You must reply before you can see the hidden data contained here.
    12. We Can
    [​IMG]
    Code:
    General
    Complete name                  : LeAnn Rimes - We Can (The Complete DVD Collection).VOB
    Format                         : MPEG-PS
    File size                      : 225 MiB
    Duration                       : 3 min 36 s
    Overall bit rate mode          : Constant
    Overall bit rate               : 8 698 kb/s
    
    Video
    ID                             : 224 (0xE0)
    Format                         : MPEG Video
    Format version                 : Version 2
    Format profile                 : Main@Main
    Format settings                : CustomMatrix / BVOP
    Format settings, BVOP          : Yes
    Format settings, Matrix        : Custom
    Format settings, GOP           : Variable
    Format settings, picture struc : Frame
    Duration                       : 3 min 36 s
    Bit rate mode                  : Constant
    Bit rate                       : 7 000 kb/s
    Width                          : 720 pixels
    Height                         : 480 pixels
    Display aspect ratio           : 4:3
    Frame rate                     : 29.970 (30000/1001) FPS
    Standard                       : NTSC
    Color space                    : YUV
    Chroma subsampling             : 4:2:0
    Bit depth                      : 8 bits
    Scan type                      : Interlaced
    Scan order                     : Bottom Field First
    Compression mode               : Lossy
    Bits/(Pixel*Frame)             : 0.676
    Time code of first frame       : 00:00:00:00
    Time code source               : Group of pictures header
    GOP, Open/Closed               : Closed
    Stream size                    : 181 MiB (80%)
    
    Audio
    ID                             : 189 (0xBD)-160 (0xA0)
    Format                         : PCM
    Format settings                : Big / Signed
    Muxing mode                    : DVD-Video
    Duration                       : 3 min 36 s
    Bit rate mode                  : Constant
    Bit rate                       : 1 536 kb/s
    Channel(s)                     : 2 channels
    Sampling rate                  : 48.0 kHz
    Bit depth                      : 16 bits
    Stream size                    : 39.7 MiB (18%)
    
    Menu
    Hidden Content:
    You must reply before you can see the hidden data contained here.
    13. The Last Thing On My Mind (With Ronan Keating)
    [​IMG]
    Code:
    General
    Complete name                  : LeAnn Rimes - The Last Thing On My Mind (With Ronan Keating) (The Complete DVD Collection).VOB
    Format                         : MPEG-PS
    File size                      : 254 MiB
    Duration                       : 4 min 4 s
    Overall bit rate mode          : Constant
    Overall bit rate               : 8 695 kb/s
    
    Video
    ID                             : 224 (0xE0)
    Format                         : MPEG Video
    Format version                 : Version 2
    Format profile                 : Main@Main
    Format settings                : CustomMatrix / BVOP
    Format settings, BVOP          : Yes
    Format settings, Matrix        : Custom
    Format settings, GOP           : M=3, N=15
    Format settings, picture struc : Frame
    Duration                       : 4 min 4 s
    Bit rate mode                  : Constant
    Bit rate                       : 7 000 kb/s
    Width                          : 720 pixels
    Height                         : 480 pixels
    Display aspect ratio           : 4:3
    Frame rate                     : 29.970 (30000/1001) FPS
    Standard                       : NTSC
    Color space                    : YUV
    Chroma subsampling             : 4:2:0
    Bit depth                      : 8 bits
    Scan type                      : Interlaced
    Scan order                     : Bottom Field First
    Compression mode               : Lossy
    Bits/(Pixel*Frame)             : 0.676
    Time code of first frame       : 00:00:00:00
    Time code source               : Group of pictures header
    GOP, Open/Closed               : Closed
    Stream size                    : 204 MiB (80%)
    
    Audio
    ID                             : 189 (0xBD)-160 (0xA0)
    Format                         : PCM
    Format settings                : Big / Signed
    Muxing mode                    : DVD-Video
    Duration                       : 4 min 4 s
    Bit rate mode                  : Constant
    Bit rate                       : 1 536 kb/s
    Channel(s)                     : 2 channels
    Sampling rate                  : 48.0 kHz
    Bit depth                      : 16 bits
    Stream size                    : 44.8 MiB (18%)
    
    Menu
    Hidden Content:
    You must reply before you can see the hidden data contained here.
    14. Nothin Bout Love Makes Sense
    [​IMG]
    Code:
    General
    Complete name                  : LeAnn Rimes - Nothin Bout Love Makes Sense (The Complete DVD Collection).VOB
    Format                         : MPEG-PS
    File size                      : 187 MiB
    Duration                       : 2 min 50 s
    Overall bit rate mode          : Constant
    Overall bit rate               : 9 200 kb/s
    
    Video
    ID                             : 224 (0xE0)
    Format                         : MPEG Video
    Format version                 : Version 2
    Format profile                 : Main@Main
    Format settings                : CustomMatrix / BVOP
    Format settings, BVOP          : Yes
    Format settings, Matrix        : Custom
    Format settings, GOP           : Variable
    Format settings, picture struc : Frame
    Duration                       : 2 min 50 s
    Bit rate mode                  : Constant
    Bit rate                       : 7 500 kb/s
    Width                          : 720 pixels
    Height                         : 480 pixels
    Display aspect ratio           : 4:3
    Frame rate                     : 29.970 (30000/1001) FPS
    Standard                       : NTSC
    Color space                    : YUV
    Chroma subsampling             : 4:2:0
    Bit depth                      : 8 bits
    Scan type                      : Interlaced
    Scan order                     : Bottom Field First
    Compression mode               : Lossy
    Bits/(Pixel*Frame)             : 0.724
    Time code of first frame       : 00:00:00:00
    Time code source               : Group of pictures header
    Stream size                    : 152 MiB (81%)
    
    Audio
    ID                             : 189 (0xBD)-160 (0xA0)
    Format                         : PCM
    Format settings                : Big / Signed
    Muxing mode                    : DVD-Video
    Duration                       : 2 min 50 s
    Bit rate mode                  : Constant
    Bit rate                       : 1 536 kb/s
    Channel(s)                     : 2 channels
    Sampling rate                  : 48.0 kHz
    Bit depth                      : 16 bits
    Stream size                    : 31.3 MiB (17%)
    
    Menu
    Hidden Content:
    You must reply before you can see the hidden data contained here.
    15. Probably Wouldn't Be This Way
    [​IMG]
    Code:
    General
    Complete name                  : LeAnn Rimes - Probably Woudn't Be This Way (The Complete DVD Collection).VOB
    Format                         : MPEG-PS
    File size                      : 237 MiB
    Duration                       : 3 min 36 s
    Overall bit rate mode          : Constant
    Overall bit rate               : 9 200 kb/s
    
    Video
    ID                             : 224 (0xE0)
    Format                         : MPEG Video
    Format version                 : Version 2
    Format profile                 : Main@Main
    Format settings                : CustomMatrix / BVOP
    Format settings, BVOP          : Yes
    Format settings, Matrix        : Custom
    Format settings, GOP           : Variable
    Format settings, picture struc : Frame
    Duration                       : 3 min 36 s
    Bit rate mode                  : Constant
    Bit rate                       : 7 500 kb/s
    Width                          : 720 pixels
    Height                         : 480 pixels
    Display aspect ratio           : 4:3
    Frame rate                     : 29.970 (30000/1001) FPS
    Standard                       : NTSC
    Color space                    : YUV
    Chroma subsampling             : 4:2:0
    Bit depth                      : 8 bits
    Scan type                      : Interlaced
    Scan order                     : Bottom Field First
    Compression mode               : Lossy
    Bits/(Pixel*Frame)             : 0.724
    Time code of first frame       : 00:00:00:00
    Time code source               : Group of pictures header
    Stream size                    : 193 MiB (81%)
    
    Audio
    ID                             : 189 (0xBD)-160 (0xA0)
    Format                         : PCM
    Format settings                : Big / Signed
    Muxing mode                    : DVD-Video
    Duration                       : 3 min 36 s
    Bit rate mode                  : Constant
    Bit rate                       : 1 536 kb/s
    Channel(s)                     : 2 channels
    Sampling rate                  : 48.0 kHz
    Bit depth                      : 16 bits
    Stream size                    : 39.6 MiB (17%)
    
    Menu
    Hidden Content:
    You must reply before you can see the hidden data contained here.
    16. Something's Gotta Give
    [​IMG]
    Code:
    General
    Complete name                  : LeAnn Rimes - Something's Gotta Give (The Complete DVD Collection).VOB
    Format                         : MPEG-PS
    File size                      : 258 MiB
    Duration                       : 3 min 54 s
    Overall bit rate mode          : Constant
    Overall bit rate               : 9 202 kb/s
    
    Video
    ID                             : 224 (0xE0)
    Format                         : MPEG Video
    Format version                 : Version 2
    Format profile                 : Main@Main
    Format settings                : CustomMatrix / BVOP
    Format settings, BVOP          : Yes
    Format settings, Matrix        : Custom
    Format settings, GOP           : Variable
    Format settings, picture struc : Frame
    Duration                       : 3 min 54 s
    Bit rate mode                  : Constant
    Bit rate                       : 7 500 kb/s
    Width                          : 720 pixels
    Height                         : 480 pixels
    Display aspect ratio           : 4:3
    Frame rate                     : 29.970 (30000/1001) FPS
    Standard                       : NTSC
    Color space                    : YUV
    Chroma subsampling             : 4:2:0
    Bit depth                      : 8 bits
    Scan type                      : Interlaced
    Scan order                     : Bottom Field First
    Compression mode               : Lossy
    Bits/(Pixel*Frame)             : 0.724
    Time code of first frame       : 00:00:00:00
    Time code source               : Group of pictures header
    Stream size                    : 209 MiB (81%)
    
    Audio
    ID                             : 189 (0xBD)-160 (0xA0)
    Format                         : PCM
    Format settings                : Big / Signed
    Muxing mode                    : DVD-Video
    Duration                       : 3 min 54 s
    Bit rate mode                  : Constant
    Bit rate                       : 1 536 kb/s
    Channel(s)                     : 2 channels
    Sampling rate                  : 48.0 kHz
    Bit depth                      : 16 bits
    Stream size                    : 43.0 MiB (17%)
    
    Menu
    Hidden Content:
    You must reply before you can see the hidden data contained here.
    17. And It Feels Like
    [​IMG]
    Code:
    General
    Complete name                  : LeAnn Rimes - And It Feels Like (The Complete DVD Collection).VOB
    Format                         : MPEG-PS
    File size                      : 247 MiB
    Duration                       : 3 min 45 s
    Overall bit rate mode          : Constant
    Overall bit rate               : 9 201 kb/s
    
    Video
    ID                             : 224 (0xE0)
    Format                         : MPEG Video
    Format version                 : Version 2
    Format profile                 : Main@Main
    Format settings                : CustomMatrix / BVOP
    Format settings, BVOP          : Yes
    Format settings, Matrix        : Custom
    Format settings, GOP           : Variable
    Format settings, picture struc : Frame
    Duration                       : 3 min 45 s
    Bit rate mode                  : Constant
    Bit rate                       : 7 500 kb/s
    Width                          : 720 pixels
    Height                         : 480 pixels
    Display aspect ratio           : 4:3
    Frame rate                     : 29.970 (30000/1001) FPS
    Standard                       : NTSC
    Color space                    : YUV
    Chroma subsampling             : 4:2:0
    Bit depth                      : 8 bits
    Scan type                      : Interlaced
    Scan order                     : Bottom Field First
    Compression mode               : Lossy
    Bits/(Pixel*Frame)             : 0.724
    Time code of first frame       : 00:00:00:00
    Time code source               : Group of pictures header
    Stream size                    : 201 MiB (81%)
    
    Audio
    ID                             : 189 (0xBD)-160 (0xA0)
    Format                         : PCM
    Format settings                : Big / Signed
    Muxing mode                    : DVD-Video
    Duration                       : 3 min 45 s
    Bit rate mode                  : Constant
    Bit rate                       : 1 536 kb/s
    Channel(s)                     : 2 channels
    Sampling rate                  : 48.0 kHz
    Bit depth                      : 16 bits
    Stream size                    : 41.3 MiB (17%)
    
    Menu
    Hidden Content:
    You must reply before you can see the hidden data contained here.
    18. Strong
    [​IMG]
    Code:
    General
    Complete name                  : LeAnn Rimes - Strong (The Complete DVD Collection).VOB
    Format                         : MPEG-PS
    File size                      : 278 MiB
    Duration                       : 4 min 13 s
    Overall bit rate mode          : Constant
    Overall bit rate               : 9 202 kb/s
    
    Video
    ID                             : 224 (0xE0)
    Format                         : MPEG Video
    Format version                 : Version 2
    Format profile                 : Main@Main
    Format settings                : CustomMatrix / BVOP
    Format settings, BVOP          : Yes
    Format settings, Matrix        : Custom
    Format settings, GOP           : Variable
    Format settings, picture struc : Frame
    Duration                       : 4 min 13 s
    Bit rate mode                  : Constant
    Bit rate                       : 7 500 kb/s
    Width                          : 720 pixels
    Height                         : 480 pixels
    Display aspect ratio           : 4:3
    Frame rate                     : 29.970 (30000/1001) FPS
    Standard                       : NTSC
    Color space                    : YUV
    Chroma subsampling             : 4:2:0
    Bit depth                      : 8 bits
    Scan type                      : Interlaced
    Scan order                     : Bottom Field First
    Compression mode               : Lossy
    Bits/(Pixel*Frame)             : 0.724
    Time code of first frame       : 00:00:00:00
    Time code source               : Group of pictures header
    Stream size                    : 226 MiB (81%)
    
    Audio
    ID                             : 189 (0xBD)-160 (0xA0)
    Format                         : PCM
    Format settings                : Big / Signed
    Muxing mode                    : DVD-Video
    Duration                       : 4 min 13 s
    Bit rate mode                  : Constant
    Bit rate                       : 1 536 kb/s
    Channel(s)                     : 2 channels
    Sampling rate                  : 48.0 kHz
    Bit depth                      : 16 bits
    Stream size                    : 46.3 MiB (17%)
    
    Menu
    Hidden Content:
    You must reply before you can see the hidden data contained here.
    19. Everybody's Someone (With Brian McFadden)
    [​IMG]
    Code:
    General
    Complete name                  : LeAnn Rimes - Everybody's Someone (With Brian McFadden) (The Complete DVD Collection).VOB
    Format                         : MPEG-PS
    File size                      : 249 MiB
    Duration                       : 3 min 39 s
    Overall bit rate mode          : Constant
    Overall bit rate               : 9 504 kb/s
    
    Video
    ID                             : 224 (0xE0)
    Format                         : MPEG Video
    Format version                 : Version 2
    Format profile                 : Main@Main
    Format settings                : CustomMatrix / BVOP
    Format settings, BVOP          : Yes
    Format settings, Matrix        : Custom
    Format settings, GOP           : Variable
    Format settings, picture struc : Frame
    Duration                       : 3 min 39 s
    Bit rate mode                  : Constant
    Bit rate                       : 7 800 kb/s
    Width                          : 720 pixels
    Height                         : 480 pixels
    Display aspect ratio           : 4:3
    Frame rate                     : 29.970 (30000/1001) FPS
    Standard                       : NTSC
    Color space                    : YUV
    Chroma subsampling             : 4:2:0
    Bit depth                      : 8 bits
    Scan type                      : Interlaced
    Scan order                     : Bottom Field First
    Compression mode               : Lossy
    Bits/(Pixel*Frame)             : 0.753
    Time code of first frame       : 00:00:00:00
    Time code source               : Group of pictures header
    Stream size                    : 203 MiB (82%)
    
    Audio
    ID                             : 189 (0xBD)-160 (0xA0)
    Format                         : PCM
    Format settings                : Big / Signed
    Muxing mode                    : DVD-Video
    Duration                       : 3 min 39 s
    Bit rate mode                  : Constant
    Bit rate                       : 1 536 kb/s
    Channel(s)                     : 2 channels
    Sampling rate                  : 48.0 kHz
    Bit depth                      : 16 bits
    Stream size                    : 40.2 MiB (16%)
    
    Menu
    Hidden Content:
    You must reply before you can see the hidden data contained here.
     
    clasicos1984 and RAVIXX like this.
  2. Loading...


  3. 96lagos

    96lagos Well-Known Member

    Joined:
    Dec 4, 2016
    Messages:
    2,065
    Likes Received:
    194
    Thanks
     
  4. Moogoperator

    Moogoperator Member

    Joined:
    Nov 10, 2020
    Messages:
    346
    Likes Received:
    8
    Muchas gracias
     
  5. ccecil1985

    ccecil1985 Active Member

    Joined:
    Nov 1, 2020
    Messages:
    258
    Likes Received:
    43
  6. kevinl203

    kevinl203 Member

    Joined:
    Feb 25, 2016
    Messages:
    822
    Likes Received:
    11
  7. oslekassev

    oslekassev Member

    Joined:
    Nov 8, 2020
    Messages:
    46
    Likes Received:
    13
    Thank you So much
     
  8. pacoleches

    pacoleches Member

    Joined:
    Jul 19, 2019
    Messages:
    152
    Likes Received:
    0
  9. quake360

    quake360 Active Member

    Joined:
    Feb 1, 2020
    Messages:
    501
    Likes Received:
    30
  10. Dannymixer

    Dannymixer Member

    Joined:
    Dec 4, 2019
    Messages:
    132
    Likes Received:
    0
    Tremenda Colección .. . . . . Muchas gracias !
     
  11. Sergiodegros

    Sergiodegros Well-Known Member

    Joined:
    Mar 21, 2017
    Messages:
    1,502
    Likes Received:
    80
  12. multimediafm

    multimediafm Well-Known Member Archiver Donor

    Joined:
    Mar 27, 2014
    Messages:
    18,791
    Likes Received:
    1,872
  13. clasicos1984

    clasicos1984 Member

    Joined:
    Nov 8, 2020
    Messages:
    110
    Likes Received:
    0
  14. jojo335

    jojo335 Well-Known Member

    Joined:
    Jan 18, 2017
    Messages:
    1,139
    Likes Received:
    46
  15. Yugi75

    Yugi75 Member

    Joined:
    Thursday
    Messages:
    80
    Likes Received:
    0