Lauren Diagle - You Say | (NRJHITSHD-1080i-DD2.0-IboYLDz)-HDMania

Discussion in 'NRJ HITS' started by By.YLDz, May 14, 2019.

  1. By.YLDz

    By.YLDz Hayley Williams Fan :) Capper

    Joined:
    Oct 7, 2013
    Messages:
    455
    Likes Received:
    5,065
    CappeD IboYLDz

    [​IMG]
    [​IMG]
    [​IMG]
    [​IMG]
    [​IMG]
    [​IMG]


    Format : MPEG-TS
    File size : 135 MiB
    Duration : 4 min 25 s
    Overall bit rate mode : Variable
    Overall bit rate : 4 251 kb/s

    Video
    ID : 410 (0x19A)
    Menu ID : 8204 (0x200C)
    Format : AVC
    Format/Info : Advanced Video Codec
    Format profile : High@L4
    Format settings : CABAC / 4 Ref Frames
    Format settings, CABAC : Yes
    Format settings, ReFrames : 4 frames
    Format settings, GOP : M=8, N=24
    Codec ID : 27
    Duration : 4 min 25 s
    Bit rate : 3 847 kb/s
    Width : 1 920 pixels
    Height : 1 080 pixels
    Display aspect ratio : 16:9
    Frame rate : 25.000 FPS
    Standard : Component
    Color space : YUV
    Chroma subsampling : 4:2:0
    Bit depth : 8 bits
    Scan type : MBAFF
    Scan type, store method : Interleaved fields
    Scan order : Top Field First
    Bits/(Pixel*Frame) : 0.074
    Stream size : 122 MiB (90%)
    Color range : Limited
    Color primaries : BT.709
    Transfer characteristics : BT.709
    Matrix coefficients : BT.709

    Audio
    ID : 421 (0x1A5)
    Menu ID : 8204 (0x200C)
    Format : AC-3
    Format/Info : Audio Coding 3
    Commercial name : Dolby Digital
    Codec ID : 6
    Duration : 4 min 25 s
    Bit rate mode : Constant
    Bit rate : 192 kb/s
    Channel(s) : 2 channels
    Channel layout : L R
    Sampling rate : 48.0 kHz
    Frame rate : 31.250 FPS (1536 SPF)
    Bit depth : 16 bits
    Compression mode : Lossy
    Delay relative to video : -80 ms
    Stream size : 6.08 MiB (5%)
    Language : French
    Service kind : Complete Main

    Hidden Content:
    You must either reply or click 'Like' to see the hidden information contained here.
    Rar Pass : IboYLDz
     
    rhea and CELOBRAZiL like this.
  2. rhea

    rhea Well-Known Member

    Joined:
    Jan 6, 2014
    Messages:
    9,283
    Likes Received:
    1,459
    thank you so much
     
  3. CELOBRAZiL

    CELOBRAZiL Well-Known Member Capper V . I . P. Donor

    Joined:
    Oct 2, 2013
    Messages:
    6,909
    Likes Received:
    22,521
    Thank you so much! :)
     
  4. Vagabond

    Vagabond Member

    Joined:
    Jun 23, 2014
    Messages:
    272
    Likes Received:
    8
    Thank You!!