Lana Del Rey - Video Games (Blu-Ray 1080p)

Discussion in 'BLU-RAY & BD RIP' started by Dreamer, Nov 23, 2015.

  1. Dreamer

    Dreamer Lana Del Rey ♥ Halsey Capper V . I . P. Uploader

    Joined:
    Dec 4, 2014
    Messages:
    2,805
    Likes Received:
    3,933
    Lana Del Rey - Video Games (Blu-Ray 1080p)

    [​IMG]

    General
    ID : 0 (0x0)
    Complete name : C:\Users\DK\Desktop\Music Video\Blu-Ray\Lana Del Rey - Video Games (Blu-Ray).m2ts
    Format : BDAV
    Format/Info : Blu-ray Video
    File size : 249 MiB
    Duration : 4mn 45s
    Overall bit rate mode : Variable
    Overall bit rate : 7 318 Kbps
    Maximum Overall bit rate : 48.0 Mbps

    Video
    ID : 4113 (0x1011)
    Menu ID : 1 (0x1)
    Format : AVC
    Format/Info : Advanced Video Codec
    Format profile : High@L4
    Format settings, CABAC : Yes
    Format settings, ReFrames : 2 frames
    Format settings, GOP : M=2, N=12
    Codec ID : 27
    Duration : 4mn 45s
    Bit rate mode : Variable
    Bit rate : 5 484 Kbps
    Maximum bit rate : 6 000 Kbps
    Width : 1 920 pixels
    Height : 1 080 pixels
    Display aspect ratio : 16:9
    Frame rate : 23.976 fps
    Color space : YUV
    Chroma subsampling : 4:2:0
    Bit depth : 8 bits
    Scan type : Progressive
    Bits/(Pixel*Frame) : 0.110
    Stream size : 187 MiB (75%)

    Audio
    ID : 4352 (0x1100)
    Menu ID : 1 (0x1)
    Format : PCM
    Format settings, Endianness : Big
    Format settings, Sign : Signed
    Muxing mode : Blu-ray
    Codec ID : 128
    Duration : 4mn 45s
    Bit rate mode : Constant
    Bit rate : 1 536 Kbps
    Channel(s) : 2 channels
    Channel positions : Front: L R
    Sampling rate : 48.0 KHz
    Bit depth : 16 bits
    Stream size : 52.2 MiB (21%)


    [​IMG]MEGA
    Hidden Content:
    You must reply before you can see the hidden data contained here.
     
  2. Loading...


  3. lpplus

    lpplus LP & MET Fan

    Joined:
    Sep 28, 2014
    Messages:
    798
    Likes Received:
    2,950
    Thank you
     
  4. ddXogo

    ddXogo Member

    Joined:
    May 26, 2014
    Messages:
    312
    Likes Received:
    15
    thx hd
     
  5. badine82

    badine82 Member

    Joined:
    Oct 24, 2015
    Messages:
    261
    Likes Received:
    6
  6. kalo

    kalo Member

    Joined:
    May 25, 2015
    Messages:
    384
    Likes Received:
    13
    thank you
     
  7. elejido10

    elejido10 Member

    Joined:
    Oct 27, 2013
    Messages:
    189
    Likes Received:
    0
    thank you
     
  8. eduardom03

    eduardom03 Member

    Joined:
    Mar 3, 2015
    Messages:
    199
    Likes Received:
    7
    thank you!!!
     
  9. neogen

    neogen Member

    Joined:
    Aug 11, 2014
    Messages:
    30
    Likes Received:
    1
    thanks!
     
  10. alex

    alex Well-Known Member

    Joined:
    Nov 21, 2013
    Messages:
    4,552
    Likes Received:
    358
    Thank you
     
  11. usefuldo

    usefuldo Active Member

    Joined:
    Dec 19, 2013
    Messages:
    392
    Likes Received:
    27
    thank you!
     
  12. tf135

    tf135 Well-Known Member

    Joined:
    Nov 14, 2014
    Messages:
    2,244
    Likes Received:
    126
    thank you
     
  13. florentw08

    florentw08 Member

    Joined:
    Dec 6, 2015
    Messages:
    70
    Likes Received:
    0
  14. ferduarteferrari

    ferduarteferrari Member

    Joined:
    Mar 10, 2015
    Messages:
    399
    Likes Received:
    7
  15. abdi

    abdi Hi, if you need something feel free to PM me :) V . I . P. Uploader

    Joined:
    Sep 23, 2014
    Messages:
    2,357
    Likes Received:
    9,809
    thank you
     
  16. George4Ever1992

    George4Ever1992 New Member

    Joined:
    Dec 23, 2014
    Messages:
    23
    Likes Received:
    0
  17. Amy Winehouse

    Amy Winehouse Well-Known Member

    Joined:
    Dec 15, 2015
    Messages:
    729
    Likes Received:
    1,847
    thanks
     
  18. theresidentm

    theresidentm New Member

    Joined:
    Jan 14, 2016
    Messages:
    20
    Likes Received:
    0
    thank you for this
     
  19. sclubroca

    sclubroca Member

    Joined:
    Feb 20, 2016
    Messages:
    268
    Likes Received:
    4
  20. fisherTW

    fisherTW Well-Known Member

    Joined:
    Dec 3, 2014
    Messages:
    1,605
    Likes Received:
    177
    Thank you.:)
     
  21. gayway

    gayway Active Member

    Joined:
    Mar 10, 2016
    Messages:
    856
    Likes Received:
    53
    Thank You!