Lana Del Rey - Summertime Sadness (Blu-Ray 1080p)

Discussion in 'BLU-RAY & BD RIP' started by Dreamer, Nov 23, 2015.

  1. Dreamer

    Dreamer Lana Del Rey ♥ Halsey Capper V . I . P. Uploader

    Joined:
    Dec 4, 2014
    Messages:
    2,881
    Likes Received:
    4,389
    Lana Del Rey - Summertime Sadness (Blu-Ray 1080p)

    [​IMG]

    General
    ID : 0 (0x0)
    Complete name : C:\Users\DK\Desktop\Music Video\Blu-Ray\Lana Del Rey - Summertime Sadness (Blu-Ray).m2ts
    Format : BDAV
    Format/Info : Blu-ray Video
    File size : 259 MiB
    Duration : 4mn 39s
    Overall bit rate mode : Variable
    Overall bit rate : 7 788 Kbps
    Maximum Overall bit rate : 48.0 Mbps

    Video
    ID : 4113 (0x1011)
    Menu ID : 1 (0x1)
    Format : AVC
    Format/Info : Advanced Video Codec
    Format profile : [email protected]
    Format settings, CABAC : Yes
    Format settings, ReFrames : 2 frames
    Format settings, GOP : M=2, N=13
    Codec ID : 27
    Duration : 4mn 39s
    Bit rate mode : Variable
    Bit rate : 5 935 Kbps
    Maximum bit rate : 6 000 Kbps
    Width : 1 920 pixels
    Height : 1 080 pixels
    Display aspect ratio : 16:9
    Frame rate : 25.000 fps
    Color space : YUV
    Chroma subsampling : 4:2:0
    Bit depth : 8 bits
    Scan type : Interlaced
    Scan order : Top Field First
    Bits/(Pixel*Frame) : 0.114
    Stream size : 198 MiB (76%)

    Audio
    ID : 4352 (0x1100)
    Menu ID : 1 (0x1)
    Format : PCM
    Format settings, Endianness : Big
    Format settings, Sign : Signed
    Muxing mode : Blu-ray
    Codec ID : 128
    Duration : 4mn 39s
    Bit rate mode : Constant
    Bit rate : 1 536 Kbps
    Channel(s) : 2 channels
    Channel positions : Front: L R
    Sampling rate : 48.0 KHz
    Bit depth : 16 bits
    Stream size : 51.2 MiB (20%)

    [​IMG]MEGA

    Hidden Content:
    You must reply before you can see the hidden data contained here.
     
    DEJOTA, ImLoser, vigneshwar5 and 9 others like this.
  2. Loading...


  3. lpplus

    lpplus LP & MET Fan

    Joined:
    Sep 28, 2014
    Messages:
    812
    Likes Received:
    3,120
    Thank you
     
  4. badine82

    badine82 Member

    Joined:
    Oct 24, 2015
    Messages:
    270
    Likes Received:
    7
  5. tf135

    tf135 Well-Known Member

    Joined:
    Nov 14, 2014
    Messages:
    2,497
    Likes Received:
    162
    thank you
     
  6. kalo

    kalo Member

    Joined:
    May 25, 2015
    Messages:
    395
    Likes Received:
    15
    thank you
     
  7. elejido10

    elejido10 Member

    Joined:
    Oct 27, 2013
    Messages:
    193
    Likes Received:
    0
    Thank you
     
  8. eduardom03

    eduardom03 Member

    Joined:
    Mar 3, 2015
    Messages:
    199
    Likes Received:
    7
    thank you very much
     
  9. neogen

    neogen Member

    Joined:
    Aug 11, 2014
    Messages:
    30
    Likes Received:
    1
    thanks!
     
  10. ScherzyBoy

    ScherzyBoy Well-Known Member V . I . P. Uploader

    Joined:
    May 14, 2015
    Messages:
    1,084
    Likes Received:
    939
  11. alex

    alex Well-Known Member

    Joined:
    Nov 21, 2013
    Messages:
    4,573
    Likes Received:
    366
    Thank you
     
  12. usefuldo

    usefuldo Active Member

    Joined:
    Dec 19, 2013
    Messages:
    415
    Likes Received:
    30
    thank you!
     
  13. TobiasBartsch

    TobiasBartsch Member

    Joined:
    Oct 16, 2015
    Messages:
    44
    Likes Received:
    3
    thanks!
     
    Last edited by a moderator: Dec 1, 2015
  14. andreamonger

    andreamonger Well-Known Member

    Joined:
    May 16, 2015
    Messages:
    1,108
    Likes Received:
    178
    THANKS A LOT
     
  15. florentw08

    florentw08 Member

    Joined:
    Dec 6, 2015
    Messages:
    70
    Likes Received:
    0
  16. ferduarteferrari

    ferduarteferrari Member

    Joined:
    Mar 10, 2015
    Messages:
    397
    Likes Received:
    7
  17. karpuzikov

    karpuzikov New Member

    Joined:
    Dec 16, 2015
    Messages:
    12
    Likes Received:
    0
    интересно)
     
  18. George4Ever1992

    George4Ever1992 New Member

    Joined:
    Dec 23, 2014
    Messages:
    23
    Likes Received:
    0
  19. DOTSFAM

    DOTSFAM Stan

    Joined:
    Jan 4, 2014
    Messages:
    134
    Likes Received:
    1
    Thank you
     
  20. aquafor

    aquafor Member

    Joined:
    Jan 16, 2016
    Messages:
    122
    Likes Received:
    0
  21. selena4ever

    selena4ever New Member

    Joined:
    Mar 8, 2016
    Messages:
    12
    Likes Received:
    0