Lana Del Rey - Ride (Blu-Ray 1080p)

Discussion in 'BLU-RAY & BD RIP' started by Dreamer, Nov 23, 2015.

  1. Dreamer

    Dreamer Lana Del Rey ♥ Capper V . I . P. Uploader

    Joined:
    Dec 4, 2014
    Messages:
    2,653
    Likes Received:
    3,180
    Lana Del Rey - Ride (Blu-Ray 1080p)

    [​IMG]


    General
    ID : 0 (0x0)
    Complete name : C:\Users\DK\Desktop\Music Video\Blu-Ray\Lana Del Rey - Ride (Blu-Ray).m2ts
    Format : BDAV
    Format/Info : Blu-ray Video
    File size : 535 MiB
    Duration : 10mn 8s
    Overall bit rate mode : Variable
    Overall bit rate : 7 381 Kbps
    Maximum Overall bit rate : 48.0 Mbps

    Video
    ID : 4113 (0x1011)
    Menu ID : 1 (0x1)
    Format : AVC
    Format/Info : Advanced Video Codec
    Format profile : [email protected]
    Format settings, CABAC : Yes
    Format settings, ReFrames : 2 frames
    Format settings, GOP : M=2, N=12
    Codec ID : 27
    Duration : 10mn 8s
    Bit rate mode : Variable
    Bit rate : 5 544 Kbps
    Maximum bit rate : 6 000 Kbps
    Width : 1 920 pixels
    Height : 1 080 pixels
    Display aspect ratio : 16:9
    Frame rate : 23.976 fps
    Color space : YUV
    Chroma subsampling : 4:2:0
    Bit depth : 8 bits
    Scan type : Progressive
    Bits/(Pixel*Frame) : 0.112
    Stream size : 402 MiB (75%)

    Audio
    ID : 4352 (0x1100)
    Menu ID : 1 (0x1)
    Format : PCM
    Format settings, Endianness : Big
    Format settings, Sign : Signed
    Muxing mode : Blu-ray
    Codec ID : 128
    Duration : 10mn 8s
    Bit rate mode : Constant
    Bit rate : 1 536 Kbps
    Channel(s) : 2 channels
    Channel positions : Front: L R
    Sampling rate : 48.0 KHz
    Bit depth : 16 bits
    Stream size : 111 MiB (21%)

    [​IMG]MEGA
    Hidden Content:
    You must reply before you can see the hidden data contained here.
     
  2. Loading...


  3. lpplus

    lpplus LP & MET Fan

    Joined:
    Sep 28, 2014
    Messages:
    784
    Likes Received:
    2,597
    Thank you
     
  4. dave1202

    dave1202 Member

    Joined:
    Feb 19, 2015
    Messages:
    99
    Likes Received:
    1
    Thank You
     
  5. tf135

    tf135 Well-Known Member

    Joined:
    Nov 14, 2014
    Messages:
    2,017
    Likes Received:
    112
    thank you
     
  6. kalo

    kalo Member

    Joined:
    May 25, 2015
    Messages:
    370
    Likes Received:
    13
    thank you
     
  7. Ines

    Ines Member

    Joined:
    Feb 12, 2014
    Messages:
    106
    Likes Received:
    1
    thanks
     
  8. elejido10

    elejido10 Member

    Joined:
    Oct 27, 2013
    Messages:
    189
    Likes Received:
    0
    THANKS YOU
     
  9. eduardom03

    eduardom03 Member

    Joined:
    Mar 3, 2015
    Messages:
    195
    Likes Received:
    7
    thank you so much!
     
  10. neogen

    neogen Member

    Joined:
    Aug 11, 2014
    Messages:
    30
    Likes Received:
    1
    thanks!
     
  11. alex

    alex Well-Known Member

    Joined:
    Nov 21, 2013
    Messages:
    4,531
    Likes Received:
    355
    Thank you
     
  12. usefuldo

    usefuldo Member

    Joined:
    Dec 19, 2013
    Messages:
    364
    Likes Received:
    23
    thank you!
     
  13. nazopo

    nazopo Active Member

    Joined:
    Apr 29, 2015
    Messages:
    76
    Likes Received:
    196
    Thanks!
     
  14. andreamonger

    andreamonger Well-Known Member

    Joined:
    May 16, 2015
    Messages:
    1,014
    Likes Received:
    170
    LOVE IT!
     
  15. zzrlisa

    zzrlisa Member

    Joined:
    Dec 4, 2015
    Messages:
    214
    Likes Received:
    20
    thanks
     
  16. florentw08

    florentw08 Member

    Joined:
    Dec 6, 2015
    Messages:
    70
    Likes Received:
    0
  17. ferduarteferrari

    ferduarteferrari Member

    Joined:
    Mar 10, 2015
    Messages:
    380
    Likes Received:
    7
  18. George4Ever1963

    George4Ever1963 New Member

    Joined:
    Dec 15, 2015
    Messages:
    6
    Likes Received:
    0
  19. firewolf05

    firewolf05 Member

    Joined:
    Jan 11, 2016
    Messages:
    376
    Likes Received:
    0
  20. max20

    max20 New Member

    Joined:
    Jan 13, 2016
    Messages:
    23
    Likes Received:
    2
    thanks
     
  21. Binho

    Binho Member

    Joined:
    Apr 9, 2014
    Messages:
    256
    Likes Received:
    4
    thanks a lot