Lana Del Rey - National Anthem (Blu-Ray 1080p)

Discussion in 'BLU-RAY & BD RIP' started by Dreamer, Nov 23, 2015.

  1. Harry

    Harry Member

    Joined:
    Mar 4, 2014
    Messages:
    357
    Likes Received:
    6
    Thank u so much! :)
     
  2. Fernando

    Fernando Member

    Joined:
    Jul 22, 2014
    Messages:
    655
    Likes Received:
    9
  3. Regis

    Regis Well-Known Member

    Joined:
    Jul 14, 2015
    Messages:
    1,115
    Likes Received:
    35
    Obrigado
     
  4. LOAN_ST1

    LOAN_ST1 Active Member

    Joined:
    Dec 29, 2016
    Messages:
    129
    Likes Received:
    31
    thank yizzzouu
     
  5. Candyon

    Candyon Member

    Joined:
    Feb 3, 2017
    Messages:
    100
    Likes Received:
    8
    Thanks
     
  6. Allan

    Allan Member

    Joined:
    Sep 2, 2014
    Messages:
    156
    Likes Received:
    5
    thanks
     
  7. johnnosolo

    johnnosolo Member

    Joined:
    Dec 18, 2015
    Messages:
    445
    Likes Received:
    13
  8. carloskoschel

    carloskoschel Member

    Joined:
    Jul 22, 2016
    Messages:
    359
    Likes Received:
    20
    thanks a lot boys!
     
  9. vishalrangpuri001

    vishalrangpuri001 anonymous

    Joined:
    May 20, 2016
    Messages:
    170
    Likes Received:
    1
  10. bloodyhunghuynh

    bloodyhunghuynh Member

    Joined:
    Dec 18, 2016
    Messages:
    50
    Likes Received:
    1
  11. Marcos Sannin

    Marcos Sannin Well-Known Member

    Joined:
    Dec 11, 2014
    Messages:
    410
    Likes Received:
    478
    thank you
     
  12. Bofways

    Bofways Member

    Joined:
    Sep 10, 2016
    Messages:
    47
    Likes Received:
    0
    Thanx
     
  13. SickVidya

    SickVidya Member

    Joined:
    Dec 10, 2015
    Messages:
    41
    Likes Received:
    0
  14. matilda

    matilda Active Member

    Joined:
    Nov 24, 2014
    Messages:
    417
    Likes Received:
    37
    thank you
     
  15. elinorhalevi

    elinorhalevi Member

    Joined:
    Nov 5, 2016
    Messages:
    60
    Likes Received:
    0
    sdsadasdad
     
  16. omide

    omide Member

    Joined:
    Jan 21, 2016
    Messages:
    245
    Likes Received:
    0
    Thank you
     
  17. Kagura

    Kagura Member

    Joined:
    May 26, 2017
    Messages:
    156
    Likes Received:
    3
    Thankss
     
  18. racsoo300

    racsoo300 Member

    Joined:
    Apr 20, 2017
    Messages:
    46
    Likes Received:
    2
    gracias amigos son grandiosos :)
    Lana Del Rey - National Anthem (Blu-Ray 1080p)

    [​IMG]

    General
    ID : 0 (0x0)
    Complete name : C:\Users\DK\Desktop\Music Video\Blu-Ray\Lana Del Rey - National Anthem (Blu-Ray).m2ts
    Format : BDAV
    Format/Info : Blu-ray Video
    File size : 405 MiB
    Duration : 7mn 48s
    Overall bit rate mode : Variable
    Overall bit rate : 7 251 Kbps
    Maximum Overall bit rate : 48.0 Mbps

    Video
    ID : 4113 (0x1011)
    Menu ID : 1 (0x1)
    Format : AVC
    Format/Info : Advanced Video Codec
    Format profile : [email protected]
    Format settings, CABAC : Yes
    Format settings, ReFrames : 2 frames
    Codec ID : 27
    Duration : 7mn 48s
    Bit rate mode : Variable
    Bit rate : 5 419 Kbps
    Maximum bit rate : 6 000 Kbps
    Width : 1 920 pixels
    Height : 1 080 pixels
    Display aspect ratio : 16:9
    Frame rate : 23.976 fps
    Color space : YUV
    Chroma subsampling : 4:2:0
    Bit depth : 8 bits
    Scan type : Progressive
    Bits/(Pixel*Frame) : 0.109
    Stream size : 302 MiB (75%)

    Audio
    ID : 4352 (0x1100)
    Menu ID : 1 (0x1)
    Format : PCM
    Format settings, Endianness : Big
    Format settings, Sign : Signed
    Muxing mode : Blu-ray
    Codec ID : 128
    Duration : 7mn 48s
    Bit rate mode : Constant
    Bit rate : 1 536 Kbps
    Channel(s) : 2 channels
    Channel positions : Front: L R
    Sampling rate : 48.0 KHz
    Bit depth : 16 bits
    Stream size : 85.7 MiB (21%)


    [​IMG]MEGA
    ***Hidden content cannot be quoted.***
    [/QUOTE]
     
  19. allancarvalhow

    allancarvalhow Member

    Joined:
    Jun 8, 2017
    Messages:
    45
    Likes Received:
    0
  20. klodrik

    klodrik Member

    Joined:
    May 29, 2017
    Messages:
    677
    Likes Received:
    11
    Thanks a lot