Lana Del Rey - National Anthem (Blu-Ray 1080p)

Discussion in 'BLU-RAY & BD RIP' started by Dreamer, Nov 23, 2015.

  1. Dreamer

    Dreamer Lana Del Rey ♥ Halsey Capper V . I . P. Uploader

    Joined:
    Dec 4, 2014
    Messages:
    2,810
    Likes Received:
    3,947
    Lana Del Rey - National Anthem (Blu-Ray 1080p)

    [​IMG]

    General
    ID : 0 (0x0)
    Complete name : C:\Users\DK\Desktop\Music Video\Blu-Ray\Lana Del Rey - National Anthem (Blu-Ray).m2ts
    Format : BDAV
    Format/Info : Blu-ray Video
    File size : 405 MiB
    Duration : 7mn 48s
    Overall bit rate mode : Variable
    Overall bit rate : 7 251 Kbps
    Maximum Overall bit rate : 48.0 Mbps

    Video
    ID : 4113 (0x1011)
    Menu ID : 1 (0x1)
    Format : AVC
    Format/Info : Advanced Video Codec
    Format profile : [email protected]
    Format settings, CABAC : Yes
    Format settings, ReFrames : 2 frames
    Codec ID : 27
    Duration : 7mn 48s
    Bit rate mode : Variable
    Bit rate : 5 419 Kbps
    Maximum bit rate : 6 000 Kbps
    Width : 1 920 pixels
    Height : 1 080 pixels
    Display aspect ratio : 16:9
    Frame rate : 23.976 fps
    Color space : YUV
    Chroma subsampling : 4:2:0
    Bit depth : 8 bits
    Scan type : Progressive
    Bits/(Pixel*Frame) : 0.109
    Stream size : 302 MiB (75%)

    Audio
    ID : 4352 (0x1100)
    Menu ID : 1 (0x1)
    Format : PCM
    Format settings, Endianness : Big
    Format settings, Sign : Signed
    Muxing mode : Blu-ray
    Codec ID : 128
    Duration : 7mn 48s
    Bit rate mode : Constant
    Bit rate : 1 536 Kbps
    Channel(s) : 2 channels
    Channel positions : Front: L R
    Sampling rate : 48.0 KHz
    Bit depth : 16 bits
    Stream size : 85.7 MiB (21%)


    [​IMG]MEGA
    Hidden Content:
    You must reply before you can see the hidden data contained here.
     
  2. Loading...


  3. lpplus

    lpplus LP & MET Fan

    Joined:
    Sep 28, 2014
    Messages:
    798
    Likes Received:
    2,953
    Thank you
     
  4. John Dee

    John Dee Member

    Joined:
    Jun 27, 2015
    Messages:
    131
    Likes Received:
    3
    A big thank you
     
  5. elejido10

    elejido10 Member

    Joined:
    Oct 27, 2013
    Messages:
    189
    Likes Received:
    0
    Thank you so much! .)
     
  6. eduardom03

    eduardom03 Member

    Joined:
    Mar 3, 2015
    Messages:
    199
    Likes Received:
    7
    thank you
     
  7. neogen

    neogen Member

    Joined:
    Aug 11, 2014
    Messages:
    30
    Likes Received:
    1
    thanks!
     
  8. alex

    alex Well-Known Member

    Joined:
    Nov 21, 2013
    Messages:
    4,552
    Likes Received:
    358
    Thank you
     
  9. usefuldo

    usefuldo Active Member

    Joined:
    Dec 19, 2013
    Messages:
    393
    Likes Received:
    28
    thank you!
     
  10. florentw08

    florentw08 Member

    Joined:
    Dec 6, 2015
    Messages:
    70
    Likes Received:
    0
  11. ferduarteferrari

    ferduarteferrari Member

    Joined:
    Mar 10, 2015
    Messages:
    399
    Likes Received:
    7
  12. George4Ever1963

    George4Ever1963 New Member

    Joined:
    Dec 15, 2015
    Messages:
    6
    Likes Received:
    0
  13. George4Ever1992

    George4Ever1992 New Member

    Joined:
    Dec 23, 2014
    Messages:
    23
    Likes Received:
    0
  14. Puchacz93

    Puchacz93 Well-Known Member

    Joined:
    Feb 4, 2015
    Messages:
    1,210
    Likes Received:
    722
    Thank you:love:
     
  15. firewolf05

    firewolf05 Member

    Joined:
    Jan 11, 2016
    Messages:
    380
    Likes Received:
    0
  16. IWantBlood

    IWantBlood Member

    Joined:
    Apr 17, 2016
    Messages:
    73
    Likes Received:
    2
  17. Minh Vu

    Minh Vu Member

    Joined:
    Nov 5, 2015
    Messages:
    294
    Likes Received:
    17
    thanks
     
  18. Pavulon

    Pavulon Well-Known Member

    Joined:
    Mar 22, 2016
    Messages:
    2,795
    Likes Received:
    312
    thanks
     
  19. traymedia

    traymedia New Member

    Joined:
    Jun 1, 2016
    Messages:
    8
    Likes Received:
    5
    Thank you!
     
  20. music2soul

    music2soul Active Member

    Joined:
    Jun 7, 2016
    Messages:
    564
    Likes Received:
    126
    Thanks for sharing.
     
  21. highbythebeach

    highbythebeach Member

    Joined:
    Jun 25, 2016
    Messages:
    201
    Likes Received:
    10
    Is there a way to just watch?
     
    Last edited: Jun 27, 2016