Lana Del Rey - Music To Watch Boys To (One.by HD 1080i) - dan93star

Discussion in 'One.by HD' started by Dreamer, Nov 4, 2015.

  1. Dreamer

    Dreamer Lana Del Rey ♥ Halsey Capper V . I . P. Uploader

    Joined:
    Dec 4, 2014
    Messages:
    2,883
    Likes Received:
    4,402
    Lana Del Rey - Music To Watch Boys To (One.by HD 1080i)


    [​IMG]


    General
    ID : 0 (0x0)
    Complete name : C:\Users\DK\Desktop\Lana Del Rey - Music To Watch Boys To (One.by HD).ts
    Format : MPEG-TS
    File size : 144 MiB
    Duration : 4mn 16s
    Overall bit rate mode : Variable
    Overall bit rate : 4 719 Kbps
    Maximum Overall bit rate : 3 432 Kbps

    Video
    ID : 4113 (0x1011)
    Menu ID : 1 (0x1)
    Format : AVC
    Format/Info : Advanced Video Codec
    Format profile : [email protected]
    Format settings, CABAC : Yes
    Format settings, ReFrames : 2 frames
    Codec ID : 27
    Duration : 4mn 16s
    Bit rate : 4 332 Kbps
    Width : 1 920 pixels
    Height : 1 080 pixels
    Display aspect ratio : 16:9
    Frame rate : 25.000 fps
    Color space : YUV
    Chroma subsampling : 4:2:0
    Bit depth : 8 bits
    Scan type : Progressive
    Bits/(Pixel*Frame) : 0.084
    Stream size : 132 MiB (92%)

    Audio
    ID : 4352 (0x1100)
    Menu ID : 1 (0x1)
    Format : AC-3
    Format/Info : Audio Coding 3
    Mode extension : CM (complete main)
    Format settings, Endianness : Big
    Codec ID : 129
    Duration : 4mn 16s
    Bit rate mode : Constant
    Bit rate : 192 Kbps
    Channel(s) : 2 channels
    Channel positions : Front: L R
    Sampling rate : 48.0 KHz
    Compression mode : Lossy
    Stream size : 5.86 MiB (4%)


    Capped by me

    Hidden Content:
    You must reply before you can see the hidden data contained here.

     
    Last edited: Nov 5, 2015
    DETOX, rhea and CELOBRAZiL like this.
  2. rhea

    rhea Well-Known Member

    Joined:
    Jan 6, 2014
    Messages:
    6,956
    Likes Received:
    757
    thank you so much!
     
  3. Dreamer

    Dreamer Lana Del Rey ♥ Halsey Capper V . I . P. Uploader

    Joined:
    Dec 4, 2014
    Messages:
    2,883
    Likes Received:
    4,402
    One.by HD:victory:
     
  4. DETOX

    DETOX K-POP fan ♡ VIXX▾T-ARA▾B.A.P▾17▾WANNA ONE▾BTS... V . I . P. Uploader

    Joined:
    Feb 20, 2014
    Messages:
    3,686
    Likes Received:
    26,691
    Thank you so much!
     
  5. MaggieS

    MaggieS Well-Known Member

    Joined:
    Sep 19, 2014
    Messages:
    1,046
    Likes Received:
    53
    tnx u
     
  6. Crusha

    Crusha Well-Known Member Capper V . I . P.

    Joined:
    Oct 15, 2014
    Messages:
    2,358
    Likes Received:
    2,650
    thank you!! :)
     
  7. giddeon85

    giddeon85 Member

    Joined:
    Aug 5, 2016
    Messages:
    260
    Likes Received:
    9
    thanks!
     
  8. tapions

    tapions Active Member

    Joined:
    Aug 30, 2016
    Messages:
    909
    Likes Received:
    77
    gracias
     
  9. vogor

    vogor Member

    Joined:
    Oct 5, 2016
    Messages:
    125
    Likes Received:
    0
    Super
     
  10. brownbradpitt613

    brownbradpitt613 Member

    Joined:
    Sep 3, 2017
    Messages:
    635
    Likes Received:
    7
    great song!