Lana Del Rey - Blue Jeans (Blu-Ray 1080p)

Discussion in 'BLU-RAY & BD RIP' started by Dreamer, Nov 23, 2015.

  1. Dreamer

    Dreamer ♫ It's Britney Bitch ♫ Capper Uploader

    Joined:
    Dec 4, 2014
    Messages:
    2,209
    Likes Received:
    1,924
    Lana Del Rey - Blue Jeans (Blu-Ray 1080p)

    [​IMG]

    General
    ID : 0 (0x0)
    Complete name : C:\Users\DK\Desktop\Music Video\Blu-Ray\Lana Del Rey - Blue Jeans (Blu-Ray).m2ts
    Format : BDAV
    Format/Info : Blu-ray Video
    File size : 241 MiB
    Duration : 4mn 20s
    Overall bit rate mode : Variable
    Overall bit rate : 7 760 Kbps
    Maximum Overall bit rate : 48.0 Mbps

    Video
    ID : 4113 (0x1011)
    Menu ID : 1 (0x1)
    Format : AVC
    Format/Info : Advanced Video Codec
    Format profile : High@L4
    Format settings, CABAC : Yes
    Format settings, ReFrames : 2 frames
    Codec ID : 27
    Duration : 4mn 20s
    Bit rate mode : Variable
    Bit rate : 5 908 Kbps
    Maximum bit rate : 7 000 Kbps
    Width : 1 920 pixels
    Height : 1 080 pixels
    Display aspect ratio : 16:9
    Frame rate : 23.976 fps
    Color space : YUV
    Chroma subsampling : 4:2:0
    Bit depth : 8 bits
    Scan type : Progressive
    Bits/(Pixel*Frame) : 0.119
    Stream size : 184 MiB (76%)

    Audio
    ID : 4352 (0x1100)
    Menu ID : 1 (0x1)
    Format : PCM
    Format settings, Endianness : Big
    Format settings, Sign : Signed
    Muxing mode : Blu-ray
    Codec ID : 128
    Duration : 4mn 20s
    Bit rate mode : Constant
    Bit rate : 1 536 Kbps
    Channel(s) : 2 channels
    Channel positions : Front: L R
    Sampling rate : 48.0 KHz
    Bit depth : 16 bits
    Stream size : 47.7 MiB (20%)


    [​IMG]MEGA
    Hidden Content:
    You must reply before you can see the hidden data contained here.
     
    Danny82, alex, 777josem and 1 other person like this.
  2. Loading...


  3. rashka

    rashka Member

    Joined:
    Apr 8, 2014
    Messages:
    200
    Likes Received:
    7
    Thank you so much!))
     
  4. lpplus

    lpplus Well-Known Member

    Joined:
    Sep 28, 2014
    Messages:
    432
    Likes Received:
    585
    Thank you
     
  5. tf135

    tf135 Well-Known Member

    Joined:
    Nov 14, 2014
    Messages:
    1,583
    Likes Received:
    90
    thank you
     
  6. kalo

    kalo Member

    Joined:
    May 25, 2015
    Messages:
    302
    Likes Received:
    5
    thank you
     
  7. Ines

    Ines Member

    Joined:
    Feb 12, 2014
    Messages:
    50
    Likes Received:
    1
    thanks
     
  8. elejido10

    elejido10 Member

    Joined:
    Oct 27, 2013
    Messages:
    189
    Likes Received:
    0
    Thank you so much :)
     
  9. eduardom03

    eduardom03 Member

    Joined:
    Mar 3, 2015
    Messages:
    161
    Likes Received:
    5
  10. neogen

    neogen Member

    Joined:
    Aug 11, 2014
    Messages:
    30
    Likes Received:
    1
    thanks!
     
  11. alex

    alex Well-Known Member

    Joined:
    Nov 21, 2013
    Messages:
    4,507
    Likes Received:
    337
    Thank you
     
  12. usefuldo

    usefuldo Member

    Joined:
    Dec 19, 2013
    Messages:
    305
    Likes Received:
    18
    thank you!
     
  13. andreamonger

    andreamonger Active Member

    Joined:
    May 16, 2015
    Messages:
    972
    Likes Received:
    149
    LOVE THISVIDEO
     
  14. florentw08

    florentw08 Member

    Joined:
    Dec 6, 2015
    Messages:
    63
    Likes Received:
    0
  15. ferduarteferrari

    ferduarteferrari Member

    Joined:
    Mar 10, 2015
    Messages:
    379
    Likes Received:
    7
  16. krith

    krith Member

    Joined:
    Dec 28, 2014
    Messages:
    40
    Likes Received:
    1
    thanks
     
  17. saeed0404

    saeed0404 Member

    Joined:
    Feb 10, 2015
    Messages:
    80
    Likes Received:
    1







    sos doi kjh jhg gfd ysy yey b
     
  18. firewolf05

    firewolf05 Member

    Joined:
    Jan 11, 2016
    Messages:
    328
    Likes Received:
    0
  19. max20

    max20 New Member

    Joined:
    Jan 13, 2016
    Messages:
    18
    Likes Received:
    2
    Amazing Work
     
  20. Binho

    Binho Member

    Joined:
    Apr 9, 2014
    Messages:
    244
    Likes Received:
    4
    thanks a lot
     
  21. iopoz12

    iopoz12 Member

    Joined:
    Oct 5, 2015
    Messages:
    111
    Likes Received:
    0
    Thank You!