Lady Gaga - Poker Face (VH1HD-1080i-DD5.1-DroneSmelter)

Discussion in 'VH1 HD' started by DroneSmelter, Jan 9, 2014.

  1. DroneSmelter

    DroneSmelter Active Member Capper

    Joined:
    Dec 31, 2013
    Messages:
    48
    Likes Received:
    120
    [​IMG]
    Code:
    Format                                  : MPEG-TS
    File size                                : 145 MiB
    Duration                                : 3mn 33s
    Overall bit rate mode                    : Variable
    Overall bit rate                        : 5 714 Kbps
    Maximum Overall bit rate                : 35.5 Mbps
    
    Format                                  : AVC
    Format/Info                              : Advanced Video Codec
    Format profile                          : Main@L4.0
    Format settings, CABAC                  : Yes
    Format settings, ReFrames                : 4 frames
    Codec ID                                : 27
    Duration                                : 3mn 33s
    Bit rate mode                            : Variable
    Bit rate                                : 4 979 Kbps
    Maximum bit rate                        : 40.0 Mbps
    Width                                    : 1 440 pixels
    Height                                  : 1 080 pixels
    Display aspect ratio                    : 16:9
    Frame rate                              : 29.970 fps
    Standard                                : Component
    Color space                              : YUV
    Chroma subsampling                      : 4:2:0
    Bit depth                                : 8 bits
    Scan type                                : Interlaced
    Scan order                              : Top Field First
    Bits/(Pixel*Frame)                      : 0.107
    Stream size                              : 127 MiB (87%)
    
    Format                                  : AC-3
    Format/Info                              : Audio Coding 3
    Mode extension                          : CM (complete main)
    Format settings, Endianness              : Big
    Codec ID                                : 129
    Duration                                : 3mn 33s
    Bit rate mode                            : Constant
    Bit rate                                : 448 Kbps
    Channel(s)                              : 6 channels
    Channel positions                        : Front: L C R, Side: L R, LFE
    Sampling rate                            : 48.0 KHz
    Bit depth                                : 16 bits
    Compression mode                        : Lossy
    Stream size                              : 11.4 MiB (8%)
    Links:
    Hidden Content:
    You must reply before you can see the hidden data contained here.
     
    Last edited: Jan 25, 2014
  2. Loading...


  3. Escalade1080p

    Escalade1080p Member

    Joined:
    Nov 20, 2013
    Messages:
    515
    Likes Received:
    16
    Thank you!!!
     
  4. ericbook

    ericbook Member

    Joined:
    Jan 3, 2014
    Messages:
    202
    Likes Received:
    3
    I hope this video have a awesome quality :D thanks!
     
  5. lucash

    lucash Member

    Joined:
    Nov 25, 2013
    Messages:
    265
    Likes Received:
    15
    thanks
     
  6. ljyjzj

    ljyjzj Well-Known Member

    Joined:
    Oct 9, 2013
    Messages:
    420
    Likes Received:
    2,153
  7. adam dark

    adam dark Video Music Lover <3 V . I . P.

    Joined:
    Dec 5, 2013
    Messages:
    2,632
    Likes Received:
    5,338
  8. aaron

    aaron Active Member

    Joined:
    Dec 17, 2013
    Messages:
    244
    Likes Received:
    172
  9. xyzabc

    xyzabc Member

    Joined:
    Jan 13, 2014
    Messages:
    38
    Likes Received:
    0
    Thank you!
     
  10. ryualviss

    ryualviss Active Member

    Joined:
    Jan 6, 2014
    Messages:
    151
    Likes Received:
    590
  11. ePhysician

    ePhysician Active Member

    Joined:
    Jan 12, 2014
    Messages:
    455
    Likes Received:
    137
    Thanks
     
  12. gotech86

    gotech86 New Member

    Joined:
    Jan 18, 2014
    Messages:
    2
    Likes Received:
    0
  13. pablo palormo

    pablo palormo Member

    Joined:
    Oct 27, 2013
    Messages:
    177
    Likes Received:
    2
  14. reyouda1

    reyouda1 Member

    Joined:
    Feb 10, 2014
    Messages:
    148
    Likes Received:
    11
     
    guillaume likes this.
  15. allisee

    allisee Member

    Joined:
    Feb 5, 2014
    Messages:
    198
    Likes Received:
    3
    graciassss
     
  16. lim

    lim Well-Known Member

    Joined:
    Nov 8, 2013
    Messages:
    2,026
    Likes Received:
    75
    thanks
     
  17. guillaume

    guillaume Active Member

    Joined:
    Jan 4, 2014
    Messages:
    294
    Likes Received:
    29
    :mad:
     
  18. lifevirgin

    lifevirgin Active Member

    Joined:
    Feb 15, 2014
    Messages:
    465
    Likes Received:
    37
     
  19. Kenny Sun

    Kenny Sun Member

    Joined:
    Oct 8, 2013
    Messages:
    182
    Likes Received:
    20
  20. octobill

    octobill New Member

    Joined:
    Mar 19, 2014
    Messages:
    18
    Likes Received:
    0
    Thank you very much !
     
  21. Vitor N

    Vitor N Member

    Joined:
    Mar 22, 2014
    Messages:
    215
    Likes Received:
    12
    thanks!