Lady Gaga - Poker Face (VH1HD-1080i-DD5.1-DroneSmelter)

Discussion in 'VH1 HD' started by DroneSmelter, Jan 9, 2014.

  1. DroneSmelter

    DroneSmelter Member Capper

    Joined:
    Dec 31, 2013
    Messages:
    47
    Likes Received:
    98
    [​IMG]
    Code:
    Format                                  : MPEG-TS
    File size                                : 145 MiB
    Duration                                : 3mn 33s
    Overall bit rate mode                    : Variable
    Overall bit rate                        : 5 714 Kbps
    Maximum Overall bit rate                : 35.5 Mbps
    
    Format                                  : AVC
    Format/Info                              : Advanced Video Codec
    Format profile                          : [email protected]
    Format settings, CABAC                  : Yes
    Format settings, ReFrames                : 4 frames
    Codec ID                                : 27
    Duration                                : 3mn 33s
    Bit rate mode                            : Variable
    Bit rate                                : 4 979 Kbps
    Maximum bit rate                        : 40.0 Mbps
    Width                                    : 1 440 pixels
    Height                                  : 1 080 pixels
    Display aspect ratio                    : 16:9
    Frame rate                              : 29.970 fps
    Standard                                : Component
    Color space                              : YUV
    Chroma subsampling                      : 4:2:0
    Bit depth                                : 8 bits
    Scan type                                : Interlaced
    Scan order                              : Top Field First
    Bits/(Pixel*Frame)                      : 0.107
    Stream size                              : 127 MiB (87%)
    
    Format                                  : AC-3
    Format/Info                              : Audio Coding 3
    Mode extension                          : CM (complete main)
    Format settings, Endianness              : Big
    Codec ID                                : 129
    Duration                                : 3mn 33s
    Bit rate mode                            : Constant
    Bit rate                                : 448 Kbps
    Channel(s)                              : 6 channels
    Channel positions                        : Front: L C R, Side: L R, LFE
    Sampling rate                            : 48.0 KHz
    Bit depth                                : 16 bits
    Compression mode                        : Lossy
    Stream size                              : 11.4 MiB (8%)
    Links:
    Hidden Content:
    You must reply before you can see the hidden data contained here.
     
    Last edited: Jan 25, 2014
  2. Loading...


  3. Escalade1080p

    Escalade1080p Member

    Joined:
    Nov 20, 2013
    Messages:
    495
    Likes Received:
    14
    Thank you!!!
     
  4. ericbook

    ericbook Member

    Joined:
    Jan 3, 2014
    Messages:
    202
    Likes Received:
    3
    I hope this video have a awesome quality :D thanks!
     
  5. lucash

    lucash Member

    Joined:
    Nov 25, 2013
    Messages:
    211
    Likes Received:
    14
    thanks
     
  6. ljyjzj

    ljyjzj Well-Known Member

    Joined:
    Oct 9, 2013
    Messages:
    394
    Likes Received:
    2,032
  7. adam dark

    adam dark Video Music Lover <3 V . I . P.

    Joined:
    Dec 5, 2013
    Messages:
    2,559
    Likes Received:
    4,334
  8. aaron

    aaron Active Member

    Joined:
    Dec 17, 2013
    Messages:
    223
    Likes Received:
    166
  9. xyzabc

    xyzabc Member

    Joined:
    Jan 13, 2014
    Messages:
    38
    Likes Received:
    0
    Thank you!
     
  10. ryualviss

    ryualviss Active Member

    Joined:
    Jan 6, 2014
    Messages:
    151
    Likes Received:
    514
  11. ePhysician

    ePhysician Active Member

    Joined:
    Jan 12, 2014
    Messages:
    455
    Likes Received:
    127
    Thanks
     
  12. gotech86

    gotech86 New Member

    Joined:
    Jan 18, 2014
    Messages:
    2
    Likes Received:
    0
  13. pablo palormo

    pablo palormo Member

    Joined:
    Oct 27, 2013
    Messages:
    177
    Likes Received:
    2
  14. reyouda1

    reyouda1 Member

    Joined:
    Feb 10, 2014
    Messages:
    145
    Likes Received:
    11
     
    guillaume likes this.
  15. allisee

    allisee Member

    Joined:
    Feb 5, 2014
    Messages:
    169
    Likes Received:
    3
    graciassss
     
  16. lim

    lim Active Member

    Joined:
    Nov 8, 2013
    Messages:
    1,281
    Likes Received:
    22
    thanks
     
  17. guillaume

    guillaume Member

    Joined:
    Jan 4, 2014
    Messages:
    232
    Likes Received:
    24
    :mad:
     
  18. lifevirgin

    lifevirgin Active Member

    Joined:
    Feb 15, 2014
    Messages:
    365
    Likes Received:
    31
     
  19. Kenny Sun

    Kenny Sun Member

    Joined:
    Oct 8, 2013
    Messages:
    185
    Likes Received:
    19
  20. octobill

    octobill New Member

    Joined:
    Mar 19, 2014
    Messages:
    18
    Likes Received:
    0
    Thank you very much !
     
  21. Vitor N

    Vitor N Member

    Joined:
    Mar 22, 2014
    Messages:
    195
    Likes Received:
    8
    thanks!