Lady Gaga Poker Face FuseHD 1080i

Discussion in 'FUSE' started by KallumLavigne, Jan 12, 2014.

  1. KallumLavigne

    KallumLavigne Well-Known Member

    Joined:
    Nov 18, 2013
    Messages:
    678
    Likes Received:
    1,417
    [​IMG]

    Code:
    Complete name                  : Lady Gaga Poker Face FuseHD 1080i.ts
    Format                        : MPEG-TS
    File size                      : 316 MiB
    Duration                      : 3mn 31s
    Overall bit rate              : 12.5 Mbps
    
    Video
    ID                            : 575 (0x23F)
    Menu ID                        : 1 (0x1)
    Format                        : MPEG Video
    Codec ID                      : 2
    Duration                      : 3mn 31s
    Bit rate mode                  : Variable
    Bit rate                      : 11.5 Mbps
    Maximum bit rate              : 18.0 Mbps
    Width                          : 1 920 pixels
    Height                        : 1 080 pixels
    Display aspect ratio          : 16:9
    Frame rate                    : 29.970 fps
    Color space                    : YUV
    Chroma subsampling            : 4:2:0
    Bit depth                      : 8 bits
    Scan type                      : Interlaced
    Scan order                    : Top Field First
    Compression mode              : Lossy
    Bits/(Pixel*Frame)            : 0.185
    Stream size                    : 290 MiB (92%)
    
    Audio
    ID                            : 574 (0x23E)
    Menu ID                        : 1 (0x1)
    Format                        : AC-3
    Format/Info                    : Audio Coding 3
    Mode extension                : CM (complete main)
    Format settings, Endianness    : Big
    Codec ID                      : 129
    Duration                      : 3mn 31s
    Bit rate mode                  : Constant
    Bit rate                      : 384 Kbps
    Channel count                  : 6 channels
    Channel positions              : Front: L C R, Side: L R, LFE
    Sampling rate                  : 48.0 KHz
    Bit depth                      : 16 bits
    Compression mode              : Lossy
    Delay relative to video        : 13ms
    Stream size                    : 9.67 MiB (3%)
    Language                      : English
    Hidden Content:
    You must reply before you can see the hidden data contained here.
     
  2. Loading...


  3. lucash

    lucash Member

    Joined:
    Nov 25, 2013
    Messages:
    358
    Likes Received:
    22
    thanks
     
  4. xyzabc

    xyzabc Member

    Joined:
    Jan 13, 2014
    Messages:
    38
    Likes Received:
    0
    Thank you!
     
  5. Joseph

    Joseph Active Member

    Joined:
    Dec 10, 2013
    Messages:
    754
    Likes Received:
    185
    thanks! :D
     
  6. ericbook

    ericbook Member

    Joined:
    Jan 3, 2014
    Messages:
    202
    Likes Received:
    3
    muchas gracias :D
     
  7. poorknight

    poorknight Member

    Joined:
    Jan 9, 2014
    Messages:
    103
    Likes Received:
    1
    Thank you.
     
  8. sirbender

    sirbender New Member

    Joined:
    Jan 15, 2014
    Messages:
    4
    Likes Received:
    0
  9. ryualviss

    ryualviss Active Member

    Joined:
    Jan 6, 2014
    Messages:
    151
    Likes Received:
    617
  10. ePhysician

    ePhysician Active Member

    Joined:
    Jan 12, 2014
    Messages:
    455
    Likes Received:
    140
    Thanks
     
  11. reyouda1

    reyouda1 Member

    Joined:
    Feb 10, 2014
    Messages:
    169
    Likes Received:
    12
     
  12. allisee

    allisee Member

    Joined:
    Feb 5, 2014
    Messages:
    199
    Likes Received:
    3
    graciasss
     
  13. Harry

    Harry Member

    Joined:
    Mar 4, 2014
    Messages:
    403
    Likes Received:
    8
    Thank You so much! I Love this Videos! ;)
     
  14. Vitor N

    Vitor N Member

    Joined:
    Mar 22, 2014
    Messages:
    222
    Likes Received:
    13
    thnaks!
     
  15. grepitu

    grepitu Member

    Joined:
    Feb 1, 2014
    Messages:
    50
    Likes Received:
    7
     
  16. riv

    riv Member

    Joined:
    Feb 24, 2014
    Messages:
    60
    Likes Received:
    0
    thx
     
  17. Danielrc

    Danielrc Member

    Joined:
    Nov 24, 2013
    Messages:
    81
    Likes Received:
    3
    Thanks =D
     
  18. Etuner

    Etuner New Member

    Joined:
    Apr 4, 2014
    Messages:
    4
    Likes Received:
    0
     
  19. 江雨燃双鱼

    江雨燃双鱼 Active Member

    Joined:
    Apr 5, 2014
    Messages:
    617
    Likes Received:
    49
  20. rashka

    rashka Member

    Joined:
    Apr 8, 2014
    Messages:
    262
    Likes Received:
    13
    thanks
     
  21. phil_xmonster

    phil_xmonster New Member

    Joined:
    Apr 6, 2014
    Messages:
    4
    Likes Received:
    1
    Thanks for sharing