Lady Gaga - Poker Face 1080p 2 versions!

Discussion in 'SD Live Performances' started by adam dark, Oct 14, 2014.

  1. adam dark

    adam dark Video Music Lover <3 V . I . P.

    Joined:
    Dec 5, 2013
    Messages:
    2,681
    Likes Received:
    5,759
    Lady Gaga - Poker Face 1080p (Vevo Version)

    [​IMG]
    [​IMG]
    [​IMG]
    Code:
    General
    Complete name                  : Lady Gaga - Poker Face (Vevo 1080p).mp4
    Format                         : MPEG-4
    Format profile                 : Base Media
    Codec ID                       : isom
    File size                      : 133 MiB
    Duration                       : 3mn 35s
    Overall bit rate mode          : Variable
    Overall bit rate               : 5 183 Kbps
    Writing application            : Lavf55.22.100
    
    Video
    ID                             : 1
    Format                         : AVC
    Format/Info                    : Advanced Video Codec
    Format profile                 : Main@L4.0
    Format settings, CABAC         : Yes
    Format settings, ReFrames      : 4 frames
    Codec ID                       : avc1
    Codec ID/Info                  : Advanced Video Coding
    Duration                       : 3mn 35s
    Bit rate                       : 5 200 Kbps
    Width                          : 1 920 pixels
    Height                         : 1 080 pixels
    Display aspect ratio           : 16:10
    Frame rate mode                : Variable
    Frame rate                     : 25.000 fps
    Minimum frame rate             : 24.993 fps
    Maximum frame rate             : 25.000 fps
    Color space                    : YUV
    Chroma subsampling             : 4:2:0
    Bit depth                      : 8 bits
    Scan type                      : Progressive
    Bits/(Pixel*Frame)             : 0.100
    Stream size                    : 130 MiB (97%)
    Writing library                : x264 core 142 r2479 dd79a61
    Encoding settings              : cabac=1 / ref=4 / deblock=1:0:0 / analyse=0x1:0x111 / me=umh / subme=8 / psy=1 / psy_rd=1.00:0.00 / mixed_ref=1 / me_range=16 / chroma_me=1 / trellis=1 / 8x8dct=0 / cqm=0 / deadzone=21,11 / fast_pskip=1 / chroma_qp_offset=-2 / threads=12 / lookahead_threads=2 / sliced_threads=0 / nr=0 / decimate=1 / interlaced=0 / bluray_compat=0 / constrained_intra=0 / bframes=3 / b_pyramid=2 / b_adapt=1 / b_bias=0 / direct=1 / weightb=1 / open_gop=0 / weightp=2 / keyint=250 / keyint_min=25 / scenecut=40 / intra_refresh=0 / rc_lookahead=50 / rc=cbr / mbtree=1 / bitrate=5200 / ratetol=1.0 / qcomp=0.60 / qpmin=0 / qpmax=69 / qpstep=4 / vbv_maxrate=5200 / vbv_bufsize=5200 / nal_hrd=none / filler=0 / ip_ratio=1.40 / aq=1:1.00
    
    Audio
    ID                             : 2
    Format                         : AAC
    Format/Info                    : Advanced Audio Codec
    Format profile                 : LC
    Codec ID                       : 40
    Duration                       : 3mn 35s
    Bit rate mode                  : Variable
    Bit rate                       : 128 Kbps
    Maximum bit rate               : 131 Kbps
    Channel(s)                     : 2 channels
    Channel positions              : Front: L R
    Sampling rate                  : 44.1 KHz
    Compression mode               : Lossy
    Stream size                    : 3.29 MiB (2%)

    Hidden Content:
    You must either reply or click 'Like' to see the hidden information contained here.
    Lady Gaga - Poker Face (Jody Den Broeder Remix)

    [​IMG]



    [​IMG]
    [​IMG]
    Hidden Content:
    You must either reply or click 'Like' to see the hidden information contained here.
    Remix Video Edit Made By Me!
     
    Last edited: Feb 8, 2016
    boy, Lafuente, Richaod and 97 others like this.
  2. Loading...


  3. alex

    alex Well-Known Member

    Joined:
    Nov 21, 2013
    Messages:
    4,597
    Likes Received:
    403
    Thanks:victory:
     
  4. Gabriel Teixeira Pinto

    Gabriel Teixeira Pinto Active Member

    Joined:
    Apr 16, 2014
    Messages:
    946
    Likes Received:
    173
  5. adam dark

    adam dark Video Music Lover <3 V . I . P.

    Joined:
    Dec 5, 2013
    Messages:
    2,681
    Likes Received:
    5,759
  6. piculya

    piculya Member

    Joined:
    Apr 10, 2014
    Messages:
    537
    Likes Received:
    12
  7. pinkbecca

    pinkbecca Member Donor

    Joined:
    Apr 24, 2014
    Messages:
    202
    Likes Received:
    2
  8. mov

    mov Well-Known Member

    Joined:
    Aug 29, 2014
    Messages:
    367
    Likes Received:
    670
    thanks
     
  9. Antony

    Antony Well-Known Member

    Joined:
    Nov 11, 2013
    Messages:
    1,222
    Likes Received:
    241
    thanks :)
     
  10. adam dark

    adam dark Video Music Lover <3 V . I . P.

    Joined:
    Dec 5, 2013
    Messages:
    2,681
    Likes Received:
    5,759
    you're welcome!
     
  11. leonardo

    leonardo Member

    Joined:
    May 9, 2014
    Messages:
    655
    Likes Received:
    6
  12. igorferreira

    igorferreira Well-Known Member

    Joined:
    Apr 2, 2014
    Messages:
    367
    Likes Received:
    1,059
  13. adam dark

    adam dark Video Music Lover <3 V . I . P.

    Joined:
    Dec 5, 2013
    Messages:
    2,681
    Likes Received:
    5,759
    enjoy it "leonardo"
     
  14. adam dark

    adam dark Video Music Lover <3 V . I . P.

    Joined:
    Dec 5, 2013
    Messages:
    2,681
    Likes Received:
    5,759
    it's a pleasure "igorferreira"
     
  15. getteg

    getteg Active Member

    Joined:
    Sep 24, 2014
    Messages:
    546
    Likes Received:
    31
    511551
     
  16. Gagawuv

    Gagawuv Well-Known Member

    Joined:
    Jun 12, 2014
    Messages:
    563
    Likes Received:
    251
    Thank you for this
     
  17. adam dark

    adam dark Video Music Lover <3 V . I . P.

    Joined:
    Dec 5, 2013
    Messages:
    2,681
    Likes Received:
    5,759
    you're welcome "Gagawuv", enjoy it!
     
  18. antonvanin

    antonvanin Member

    Joined:
    Oct 25, 2014
    Messages:
    97
    Likes Received:
    7
  19. Harry

    Harry Member

    Joined:
    Mar 4, 2014
    Messages:
    408
    Likes Received:
    9
    Thank you so much!
     
  20. adam dark

    adam dark Video Music Lover <3 V . I . P.

    Joined:
    Dec 5, 2013
    Messages:
    2,681
    Likes Received:
    5,759
    you're welcome, enjoy it!
     
    dread likes this.
  21. dread

    dread New Member

    Joined:
    Oct 31, 2014
    Messages:
    1
    Likes Received:
    0
    Awesome! Thanks A Lot!!