Lady Gaga - Perfect Illusion VH1HD 1080i HDTV DD2.0 H.264 CELOBRAZiL-HDMania

Discussion in 'VH1 HD' started by CELOBRAZiL, Oct 13, 2016.

  1. CELOBRAZiL

    CELOBRAZiL Well-Known Member Capper V . I . P. Donor

    Joined:
    Oct 2, 2013
    Messages:
    5,263
    Likes Received:
    16,796
    Lady Gaga - Perfect Illusion VH1HD 1080i HDTV DD2.0 H.264 CELOBRAZiL-HDMania

    [​IMG]



    Format : MPEG-TS
    File size : 164 MiB
    Duration : 3mn 3s
    Overall bit rate mode : Variable
    Overall bit rate : 7 479 Kbps

    Video
    ID : 5408 (0x1520)
    Menu ID : 625 (0x271)
    Format : AVC
    Format/Info : Advanced Video Codec
    Format profile : High@L4
    Format settings, CABAC : Yes
    Format settings, ReFrames : 3 frames
    Codec ID : 27
    Duration : 3mn 4s
    Bit rate : 6 721 Kbps
    Width : 1 920 pixels
    Height : 1 080 pixels
    Display aspect ratio : 16:9
    Frame rate : 29.970 fps
    Color space : YUV
    Chroma subsampling : 4:2:0
    Bit depth : 8 bits
    Scan type : MBAFF
    Scan order : Top Field First
    Bits/(Pixel*Frame) : 0.108
    Stream size : 148 MiB (90%)

    Audio
    ID : 5409 (0x1521)
    Menu ID : 625 (0x271)
    Format : AC-3
    Format/Info : Audio Coding 3
    Mode extension : CM (complete main)
    Format settings, Endianness : Big
    Codec ID : 129
    Duration : 3mn 4s
    Bit rate mode : Constant
    Bit rate : 384 Kbps
    Channel(s) : 2 channels
    Channel positions : Front: L R
    Sampling rate : 48.0 KHz
    Bit depth : 16 bits
    Compression mode : Lossy
    Delay relative to video : -67ms
    Stream size : 8.44 MiB (5%)
    Language : English

    Link(s):
    Hidden Content:
    You must either reply or click 'Like' to see the hidden information contained here.
     
    Last edited: Jun 12, 2017
    gh-sean, Time, bugsworth22 and 8 others like this.
  2. Loading...


  3. Dreamer

    Dreamer Lana Del Rey ♥ Halsey ♥ Iggy Azalea Capper V . I . P. Uploader

    Joined:
    Dec 4, 2014
    Messages:
    3,034
    Likes Received:
    5,689
    Thank you so much!
     
    CELOBRAZiL likes this.
  4. Olgold

    Olgold Well-Known Member Capper

    Joined:
    Aug 19, 2015
    Messages:
    436
    Likes Received:
    1,784
    Thank you so much
     
    CELOBRAZiL likes this.
  5. rhea

    rhea Well-Known Member

    Joined:
    Jan 6, 2014
    Messages:
    7,842
    Likes Received:
    999
    thank you so much! :)
     
    CELOBRAZiL likes this.
  6. DETOX

    DETOX So baby bye bye bye ♫ V . I . P. Uploader

    Joined:
    Feb 20, 2014
    Messages:
    4,807
    Likes Received:
    41,784
    Thank you so much, CELO!:love:
     
    CELOBRAZiL likes this.
  7. Thassyo

    Thassyo Well-Known Member

    Joined:
    Oct 9, 2013
    Messages:
    2,823
    Likes Received:
    1,271
    Thanks Celo!
     
    CELOBRAZiL likes this.
  8. nickasamiya

    nickasamiya Member

    Joined:
    Sep 25, 2016
    Messages:
    303
    Likes Received:
    14
    obrigado
     
  9. PedroCorrea

    PedroCorrea Active Member

    Joined:
    Aug 21, 2014
    Messages:
    361
    Likes Received:
    53
    thank u
     
    CELOBRAZiL likes this.
  10. beAst5

    beAst5 Active Member

    Joined:
    Mar 30, 2014
    Messages:
    258
    Likes Received:
    42
    thank you
     
    CELOBRAZiL likes this.
  11. Jrec

    Jrec Active Member

    Joined:
    May 11, 2016
    Messages:
    664
    Likes Received:
    39
    Thanks
     
    CELOBRAZiL likes this.
  12. Dexter

    Dexter Member

    Joined:
    Oct 6, 2014
    Messages:
    31
    Likes Received:
    6
    thankssss!
     
    CELOBRAZiL likes this.
  13. ianforcer

    ianforcer Active Member

    Joined:
    Feb 17, 2017
    Messages:
    388
    Likes Received:
    27
    thanks
     
    CELOBRAZiL likes this.
  14. DiVenturas

    DiVenturas Well-Known Member

    Joined:
    Oct 21, 2015
    Messages:
    2,765
    Likes Received:
    162
    thanks
     
    CELOBRAZiL likes this.
  15. hanshermann

    hanshermann Well-Known Member Uploader

    Joined:
    Aug 24, 2016
    Messages:
    6,456
    Likes Received:
    9,867
    wahts taht
     
  16. rikylouis14

    rikylouis14 Well-Known Member

    Joined:
    Jun 27, 2016
    Messages:
    820
    Likes Received:
    604
    ~thanks
     
    CELOBRAZiL likes this.
  17. Pedro16

    Pedro16 Member

    Joined:
    Jan 16, 2017
    Messages:
    198
    Likes Received:
    7
    Thanks!!!
     
  18. VIVAfan1991

    VIVAfan1991 Active Member

    Joined:
    Jan 11, 2018
    Messages:
    608
    Likes Received:
    50
    thanks
     
    CELOBRAZiL likes this.
  19. Fresh strawberries

    Fresh strawberries Member

    Joined:
    Jun 14, 2016
    Messages:
    82
    Likes Received:
    6