Lady Gaga - Perfect Illusion/Million Reasons/John Wayne

Discussion in 'Music Videos' started by alonetogether, Jul 18, 2018.

  1. alonetogether

    alonetogether Member

    Joined:
    Sep 21, 2016
    Messages:
    83
    Likes Received:
    19
    Here is the Joanne trilogy : Perfect Illusion Million Reasons and John Wayne. They are ripped from TIDAL.

    Code:
    General
    Format                                   : MPEG-4
    Format profile                           : Base Media / Version 2
    Codec ID                                 : mp42 (mp42/mp41)
    File size                                : 1.43 GiB
    Duration                                 : 10mn 4s
    Overall bit rate mode                    : Variable
    Overall bit rate                         : 20.3 Mbps
    Encoded date                             : UTC 2018-07-13 14:34:29
    Tagged date                              : UTC 2018-07-13 14:38:22
    ©TIM                                     : 00:00:00:00
    ©TSC                                     : 24000
    ©TSZ                                     : 1001
    
    Video
    ID                                       : 1
    Format                                   : AVC
    Format/Info                              : Advanced Video Codec
    Format profile                           : High@L4.2
    Format settings, CABAC                   : Yes
    Format settings, ReFrames                : 2 frames
    Codec ID                                 : avc1
    Codec ID/Info                            : Advanced Video Coding
    Duration                                 : 10mn 4s
    Bit rate mode                            : Variable
    Bit rate                                 : 20.0 Mbps
    Maximum bit rate                         : 768 Kbps
    Width                                    : 1 920 pixels
    Height                                   : 1 080 pixels
    Display aspect ratio                     : 16:9
    Frame rate mode                          : Constant
    Frame rate                               : 23.976 (24000/1001) fps
    Color space                              : YUV
    Chroma subsampling                       : 4:2:0
    Bit depth                                : 8 bits
    Scan type                                : Progressive
    Bits/(Pixel*Frame)                       : 0.402
    Stream size                              : 1.41 GiB (98%)
    Language                                 : English
    Encoded date                             : UTC 2018-07-13 14:34:29
    Tagged date                              : UTC 2018-07-13 14:34:29
    Color range                              : Limited
    Color primaries                          : BT.709
    Transfer characteristics                 : BT.709
    Matrix coefficients                      : BT.709
    
    Audio
    ID                                       : 2
    Format                                   : AAC
    Format/Info                              : Advanced Audio Codec
    Format profile                           : LC
    Codec ID                                 : 40
    Duration                                 : 10mn 4s
    Source duration                          : 10mn 4s
    Bit rate mode                            : Variable
    Bit rate                                 : 317 Kbps
    Maximum bit rate                         : 454 Kbps
    Channel(s)                               : 2 channels
    Channel positions                        : Front: L R
    Sampling rate                            : 48.0 KHz
    Frame rate                               : 46.875 fps (1024 spf)
    Compression mode                         : Lossy
    Stream size                              : 22.9 MiB (2%)
    Source stream size                       : 22.9 MiB (2%)
    Language                                 : English
    Encoded date                             : UTC 2018-07-13 14:34:29
    Tagged date                              : UTC 2018-07-13 14:34:29

    Hidden Content:
    You must reply before you can see the hidden data contained here.
     
  2. Loading...


  3. SpyrosMonster

    SpyrosMonster Active Member

    Joined:
    Jan 27, 2014
    Messages:
    884
    Likes Received:
    199
    thanks
     
  4. shadyconfessionsss

    shadyconfessionsss New Member

    Joined:
    Jul 17, 2018
    Messages:
    18
    Likes Received:
    0
  5. Rhapsonyx

    Rhapsonyx Active Member

    Joined:
    May 14, 2015
    Messages:
    667
    Likes Received:
    47
    thank you!!
     
  6. lucash

    lucash Active Member

    Joined:
    Nov 25, 2013
    Messages:
    407
    Likes Received:
    35
    thank you!!
     
  7. 12wurzel

    12wurzel Active Member

    Joined:
    Oct 16, 2016
    Messages:
    590
    Likes Received:
    41
    gracie
     
  8. FanofTheStars

    FanofTheStars Well-Known Member

    Joined:
    Feb 11, 2017
    Messages:
    2,465
    Likes Received:
    247
    Thank you for this.
     
  9. vanduc1311

    vanduc1311 Member

    Joined:
    Dec 13, 2016
    Messages:
    58
    Likes Received:
    3
    thank you so much
     
  10. rudolfwhite

    rudolfwhite Member

    Joined:
    Nov 27, 2014
    Messages:
    160
    Likes Received:
    7
  11. brwnxz

    brwnxz Member

    Joined:
    Aug 11, 2017
    Messages:
    148
    Likes Received:
    7
    thx bb
     
  12. castelocarmo

    castelocarmo Member

    Joined:
    Apr 13, 2017
    Messages:
    59
    Likes Received:
    0
  13. Vero91

    Vero91 Active Member

    Joined:
    Mar 19, 2015
    Messages:
    380
    Likes Received:
    66
    thank u
     
  14. lucas.hml

    lucas.hml Active Member

    Joined:
    Feb 12, 2017
    Messages:
    444
    Likes Received:
    34
    thanks!
     
  15. Haralampos

    Haralampos Member

    Joined:
    Dec 18, 2015
    Messages:
    380
    Likes Received:
    14
  16. viniciuslira10

    viniciuslira10 Active Member

    Joined:
    Mar 4, 2017
    Messages:
    356
    Likes Received:
    44
  17. Jesus Miguel Rivero

    Jesus Miguel Rivero Well-Known Member

    Joined:
    Jul 9, 2015
    Messages:
    1,556
    Likes Received:
    42
  18. LM_GAGA

    LM_GAGA Member

    Joined:
    Feb 15, 2018
    Messages:
    275
    Likes Received:
    11
    thanks
     
  19. johnwayne

    johnwayne Active Member

    Joined:
    Nov 1, 2016
    Messages:
    166
    Likes Received:
    194
  20. Prizm2016Vas

    Prizm2016Vas Member

    Joined:
    Jul 9, 2016
    Messages:
    581
    Likes Received:
    19
  21. musique.pop

    musique.pop Member

    Joined:
    Jul 30, 2018
    Messages:
    91
    Likes Received:
    6
    thank you!