Lady Gaga Paparazzi FuseHD 1080i

Discussion in 'FUSE' started by KallumLavigne, Jan 12, 2014.

  1. KallumLavigne

    KallumLavigne Well-Known Member

    Joined:
    Nov 18, 2013
    Messages:
    678
    Likes Received:
    1,296
    [​IMG]

    Code:
    Complete name                  : Lady Gaga Paparazzi FuseHD 1080i.ts
    Format                        : MPEG-TS
    File size                      : 394 MiB
    Duration                      : 4mn 53s
    Overall bit rate              : 11.2 Mbps
    
    Video
    ID                            : 575 (0x23F)
    Menu ID                        : 1 (0x1)
    Format                        : MPEG Video
    Codec ID                      : 2
    Duration                      : 4mn 53s
    Bit rate mode                  : Variable
    Bit rate                      : 10.3 Mbps
    Maximum bit rate              : 18.0 Mbps
    Width                          : 1 920 pixels
    Height                        : 1 080 pixels
    Display aspect ratio          : 16:9
    Frame rate                    : 29.970 fps
    Color space                    : YUV
    Chroma subsampling            : 4:2:0
    Bit depth                      : 8 bits
    Scan type                      : Interlaced
    Scan order                    : Top Field First
    Compression mode              : Lossy
    Bits/(Pixel*Frame)            : 0.166
    Stream size                    : 361 MiB (92%)
    
    Audio
    ID                            : 574 (0x23E)
    Menu ID                        : 1 (0x1)
    Format                        : AC-3
    Format/Info                    : Audio Coding 3
    Mode extension                : CM (complete main)
    Format settings, Endianness    : Big
    Codec ID                      : 129
    Duration                      : 4mn 53s
    Bit rate mode                  : Constant
    Bit rate                      : 384 Kbps
    Channel count                  : 6 channels
    Channel positions              : Front: L C R, Side: L R, LFE
    Sampling rate                  : 48.0 KHz
    Bit depth                      : 16 bits
    Compression mode              : Lossy
    Delay relative to video        : 11ms
    Stream size                    : 13.4 MiB (3%)
    Language                      : English
    Hidden Content:
    You must reply before you can see the hidden data contained here.
     
    sara likes this.
  2. Loading...


  3. lucash

    lucash Member

    Joined:
    Nov 25, 2013
    Messages:
    213
    Likes Received:
    14
    thanks
     
    sara likes this.
  4. Escalade1080p

    Escalade1080p Member

    Joined:
    Nov 20, 2013
    Messages:
    516
    Likes Received:
    15
    Thanks a lot.
     
    sara likes this.
  5. ePhysician

    ePhysician Active Member

    Joined:
    Jan 12, 2014
    Messages:
    455
    Likes Received:
    128
    Thanks
     
  6. ericbook

    ericbook Member

    Joined:
    Jan 3, 2014
    Messages:
    202
    Likes Received:
    3
    Thanks a lot !
     
  7. qwerty

    qwerty New Member

    Joined:
    Dec 29, 2013
    Messages:
    17
    Likes Received:
    1
  8. swarup dutta

    swarup dutta Member

    Joined:
    Dec 29, 2013
    Messages:
    77
    Likes Received:
    2
  9. Sadi Ahmed

    Sadi Ahmed New Member

    Joined:
    Jan 14, 2014
    Messages:
    3
    Likes Received:
    0
    Gr8 1,
    tnx... tnx and tnx
     
  10. SpyrosMonster

    SpyrosMonster Active Member

    Joined:
    Jan 27, 2014
    Messages:
    729
    Likes Received:
    129
    thanks
     
  11. larzpolanzki

    larzpolanzki Member

    Joined:
    Feb 10, 2014
    Messages:
    558
    Likes Received:
    14
    guou video fantastic
     
  12. reyouda1

    reyouda1 Member

    Joined:
    Feb 10, 2014
    Messages:
    145
    Likes Received:
    11
  13. allisee

    allisee Member

    Joined:
    Feb 5, 2014
    Messages:
    194
    Likes Received:
    3
    gracias
     
  14. DETOX

    DETOX K-POP fan ♡ VIXX V . I . P. Uploader

    Joined:
    Feb 20, 2014
    Messages:
    3,338
    Likes Received:
    23,780
    thanks!!! :)
     
  15. mike gunen

    mike gunen Active Member

    Joined:
    Nov 9, 2013
    Messages:
    849
    Likes Received:
    25
  16. djfhsjkdhfdskjhfkjsdf

    djfhsjkdhfdskjhfkjsdf New Member

    Joined:
    Mar 6, 2014
    Messages:
    6
    Likes Received:
    0
  17. partypoison

    partypoison New Member

    Joined:
    Mar 7, 2014
    Messages:
    1
    Likes Received:
    0
  18. Vitor N

    Vitor N Member

    Joined:
    Mar 22, 2014
    Messages:
    208
    Likes Received:
    9
    thanks!
     
  19. grepitu

    grepitu Member

    Joined:
    Feb 1, 2014
    Messages:
    44
    Likes Received:
    7
     
    rogger smith likes this.
  20. seesagun

    seesagun Member

    Joined:
    Mar 22, 2014
    Messages:
    270
    Likes Received:
    2
    Thanks
     
  21. Danielrc

    Danielrc Member

    Joined:
    Nov 24, 2013
    Messages:
    81
    Likes Received:
    3
    thanks u =D