Lady Gaga Love Game FuseHD 1080i

Discussion in 'FUSE' started by KallumLavigne, Jan 12, 2014.

  1. KallumLavigne

    KallumLavigne Well-Known Member

    Joined:
    Nov 18, 2013
    Messages:
    678
    Likes Received:
    1,417
    [​IMG]

    Code:
    Complete name                  : Lady Gaga Love Game FuseHD 1080i.ts
    Format                        : MPEG-TS
    File size                      : 281 MiB
    Duration                      : 3mn 35s
    Overall bit rate              : 10.9 Mbps
    
    Video
    ID                            : 575 (0x23F)
    Menu ID                        : 1 (0x1)
    Format                        : MPEG Video
    Codec ID                      : 2
    Duration                      : 3mn 35s
    Bit rate mode                  : Variable
    Bit rate                      : 10.0 Mbps
    Maximum bit rate              : 18.0 Mbps
    Width                          : 1 920 pixels
    Height                        : 1 080 pixels
    Display aspect ratio          : 16:9
    Frame rate                    : 29.970 fps
    Color space                    : YUV
    Chroma subsampling            : 4:2:0
    Bit depth                      : 8 bits
    Scan type                      : Interlaced
    Scan order                    : Top Field First
    Compression mode              : Lossy
    Bits/(Pixel*Frame)            : 0.161
    Stream size                    : 257 MiB (91%)
    
    Audio
    ID                            : 574 (0x23E)
    Menu ID                        : 1 (0x1)
    Format                        : AC-3
    Format/Info                    : Audio Coding 3
    Mode extension                : CM (complete main)
    Format settings, Endianness    : Big
    Codec ID                      : 129
    Duration                      : 3mn 35s
    Bit rate mode                  : Constant
    Bit rate                      : 384 Kbps
    Channel count                  : 6 channels
    Channel positions              : Front: L C R, Side: L R, LFE
    Sampling rate                  : 48.0 KHz
    Bit depth                      : 16 bits
    Compression mode              : Lossy
    Delay relative to video        : 15ms
    Stream size                    : 9.85 MiB (4%)
    Language                      : English
    Hidden Content:
    You must reply before you can see the hidden data contained here.
     
  2. Loading...


  3. lucash

    lucash Member

    Joined:
    Nov 25, 2013
    Messages:
    358
    Likes Received:
    22
    thanks
     
  4. benja

    benja Well-Known Member

    Joined:
    Jan 8, 2014
    Messages:
    1,599
    Likes Received:
    103
    trankss1
     
    Fernanda likes this.
  5. Chris

    Chris Active Member

    Joined:
    Oct 19, 2013
    Messages:
    758
    Likes Received:
    26
    Thank you
     
  6. Escalade1080p

    Escalade1080p Member

    Joined:
    Nov 20, 2013
    Messages:
    517
    Likes Received:
    16
    Thank you!
     
  7. Joseph

    Joseph Active Member

    Joined:
    Dec 10, 2013
    Messages:
    754
    Likes Received:
    185
    thanks! :D
     
  8. Fernanda

    Fernanda Member

    Joined:
    Jan 13, 2014
    Messages:
    117
    Likes Received:
    1
    Thanks
     
  9. ryualviss

    ryualviss Active Member

    Joined:
    Jan 6, 2014
    Messages:
    151
    Likes Received:
    617
  10. ePhysician

    ePhysician Active Member

    Joined:
    Jan 12, 2014
    Messages:
    455
    Likes Received:
    140
    Thanks
     
  11. paul

    paul Member

    Joined:
    Dec 29, 2013
    Messages:
    239
    Likes Received:
    7
    thanks.
     
  12. SpyrosMonster

    SpyrosMonster Active Member

    Joined:
    Jan 27, 2014
    Messages:
    829
    Likes Received:
    175
    thanks.
     
  13. anaconda35

    anaconda35 New Member

    Joined:
    Jan 27, 2014
    Messages:
    14
    Likes Received:
    3
    Bardzo Dziękuję
     
  14. Hen2302

    Hen2302 Member

    Joined:
    Feb 4, 2014
    Messages:
    622
    Likes Received:
    9
    gracias
     
  15. reyouda1

    reyouda1 Member

    Joined:
    Feb 10, 2014
    Messages:
    169
    Likes Received:
    12
     
  16. reyouda1

    reyouda1 Member

    Joined:
    Feb 10, 2014
    Messages:
    169
    Likes Received:
    12
  17. RIKI23

    RIKI23 Active Member

    Joined:
    Oct 13, 2013
    Messages:
    511
    Likes Received:
    28
    thanks
     
  18. allisee

    allisee Member

    Joined:
    Feb 5, 2014
    Messages:
    199
    Likes Received:
    3
    gracias
     
  19. DETOX

    DETOX I am the party, yo soy fiesta. Taki taki ¡rumba! ♥ V . I . P. Uploader

    Joined:
    Feb 20, 2014
    Messages:
    5,236
    Likes Received:
    47,672
    thanks!!! :)
     
  20. Harry

    Harry Member

    Joined:
    Mar 4, 2014
    Messages:
    403
    Likes Received:
    8
    Thanks This Video is Great!
     
  21. djfhsjkdhfdskjhfkjsdf

    djfhsjkdhfdskjhfkjsdf New Member

    Joined:
    Mar 6, 2014
    Messages:
    6
    Likes Received:
    0