Lady Gaga - John Wayne VH1HD 1080i HDTV DD2.0 H.264 CELOBRAZiL-HDMania

Discussion in 'VH1 HD' started by CELOBRAZiL, Mar 21, 2017.

  1. CELOBRAZiL

    CELOBRAZiL Well-Known Member Capper V . I . P. Donor

    Joined:
    Oct 2, 2013
    Messages:
    4,248
    Likes Received:
    13,381
    Lady Gaga - John Wayne VH1HD 1080i HDTV DD2.0 H.264 CELOBRAZiL-HDMania

    [​IMG]



    Format : MPEG-TS
    File size : 174 MiB
    Duration : 2mn 53s
    Overall bit rate mode : Variable
    Overall bit rate : 8 393 Kbps

    Video
    ID : 5408 (0x1520)
    Menu ID : 5416 (0x1528)
    Format : AVC
    Format/Info : Advanced Video Codec
    Format profile : [email protected]
    Format settings, CABAC : Yes
    Format settings, ReFrames : 3 frames
    Codec ID : 27
    Duration : 2mn 56s
    Bit rate : 7 591 Kbps
    Width : 1 920 pixels
    Height : 1 080 pixels
    Display aspect ratio : 16:9
    Frame rate : 29.970 fps
    Color space : YUV
    Chroma subsampling : 4:2:0
    Bit depth : 8 bits
    Scan type : MBAFF
    Scan order : Top Field First
    Bits/(Pixel*Frame) : 0.122
    Stream size : 160 MiB (92%)

    Audio
    ID : 5409 (0x1521)
    Menu ID : 5416 (0x1528)
    Format : AC-3
    Format/Info : Audio Coding 3
    Mode extension : CM (complete main)
    Format settings, Endianness : Big
    Codec ID : 129
    Duration : 2mn 56s
    Bit rate mode : Constant
    Bit rate : 384 Kbps
    Channel(s) : 2 channels
    Channel positions : Front: L R
    Sampling rate : 48.0 KHz
    Bit depth : 16 bits
    Compression mode : Lossy
    Stream size : 8.08 MiB (5%)
    Language : English

    Text #1
    ID : 5408 (0x1520)-CC1
    Menu ID : 5416 (0x1528)
    Format : EIA-608
    Muxing mode : SCTE 128 / DTVCC Transport
    Muxing mode, more info : Muxed in Video #1
    Duration : 2mn 56s
    Bit rate mode : Constant
    Stream size : 0.00 Byte (0%)

    Text #2
    ID : 5408 (0x1520)-1
    Menu ID : 5416 (0x1528)
    Format : EIA-708
    Muxing mode : SCTE 128 / DTVCC Transport
    Muxing mode, more info : Muxed in Video #1
    Duration : 2mn 56s
    Bit rate mode : Constant
    Stream size : 0.00 Byte (0%)

    Link(s):
    Hidden Content:
    You must either reply or click 'Like' to see the hidden information contained here.
     
  2. Loading...


  3. Thassyo

    Thassyo Well-Known Member

    Joined:
    Oct 9, 2013
    Messages:
    2,537
    Likes Received:
    1,048
    Thanks, Celo.
     
    CELOBRAZiL likes this.
  4. Dreamer

    Dreamer Lana Del Rey ♥ Halsey Capper V . I . P. Uploader

    Joined:
    Dec 4, 2014
    Messages:
    2,903
    Likes Received:
    4,581
    Thank you so much!
     
    CELOBRAZiL likes this.
  5. BetaKsi

    BetaKsi Well-Known Member

    Joined:
    Oct 18, 2015
    Messages:
    1,378
    Likes Received:
    442
    Thank you))
     
    CELOBRAZiL likes this.
  6. TrendMusic

    TrendMusic Well-Known Member

    Joined:
    Oct 7, 2013
    Messages:
    1,457
    Likes Received:
    112
    thanks
     
    CELOBRAZiL likes this.
  7. rhea

    rhea Well-Known Member

    Joined:
    Jan 6, 2014
    Messages:
    7,115
    Likes Received:
    788
    thanks :)
     
    CELOBRAZiL likes this.
  8. DiVenturas

    DiVenturas Well-Known Member

    Joined:
    Oct 21, 2015
    Messages:
    2,737
    Likes Received:
    141
    thanks
     
    CELOBRAZiL likes this.
  9. hanshermann

    hanshermann Well-Known Member Uploader

    Joined:
    Aug 24, 2016
    Messages:
    5,240
    Likes Received:
    4,873
    wahts taht
     
  10. Fresh strawberries

    Fresh strawberries Member

    Joined:
    Jun 14, 2016
    Messages:
    66
    Likes Received:
    3