HDTV Lady Gaga - Interview + Judas - The Ellen DeGeneres Show [Apr-28-2011] 720p HDTV DD5.1 x264-BTL

Discussion in 'HD Live Performances' started by CELOBRAZiL, Aug 4, 2020.

  1. CELOBRAZiL

    CELOBRAZiL Well-Known Member Capper V . I . P. Donor

    Joined:
    Oct 2, 2013
    Messages:
    9,093
    Likes Received:
    34,047
    Lady Gaga - Interview + Judas - The Ellen DeGeneres Show [Apr-28-2011] 720p HDTV DD5.1 x264-BTL

    [​IMG]
    [​IMG]



    Format : Matroska
    Format version : Version 2
    File size : 218 MiB
    Duration : 10 min 34 s
    Overall bit rate : 2 885 kb/s
    Encoded date : UTC 2011-04-30 04:35:02
    Writing application : mkvmerge v4.6.0 ('Still Crazy After All These Years') built on Mar 10 2011 02:50:32
    Writing library : libebml v1.2.0 + libmatroska v1.1.0

    Video
    ID : 1
    Format : AVC
    Format/Info : Advanced Video Codec
    Format profile : High@L3.1
    Format settings : CABAC / 4 Ref Frames
    Format settings, CABAC : Yes
    Format settings, Reference frames : 4 frames
    Codec ID : V_MPEG4/ISO/AVC
    Duration : 10 min 34 s
    Bit rate : 2 499 kb/s
    Width : 1 280 pixels
    Height : 720 pixels
    Display aspect ratio : 16:9
    Frame rate mode : Constant
    Frame rate : 29.970 (30000/1001) FPS
    Color space : YUV
    Chroma subsampling : 4:2:0
    Bit depth : 8 bits
    Scan type : Progressive
    Bits/(Pixel*Frame) : 0.090
    Stream size : 185 MiB (85%)
    Writing library : x264 core 114 r1924 08d04a4
    Encoding settings : cabac=1 / ref=3 / deblock=1:0:0 / analyse=0x3:0x113 / me=hex / subme=7 / psy=1 / psy_rd=1.00:0.00 / mixed_ref=1 / me_range=16 / chroma_me=1 / trellis=1 / 8x8dct=1 / cqm=0 / deadzone=21,11 / fast_pskip=1 / chroma_qp_offset=-2 / threads=6 / sliced_threads=0 / nr=0 / decimate=1 / interlaced=0 / constrained_intra=0 / bframes=3 / b_pyramid=2 / b_adapt=1 / b_bias=0 / direct=1 / weightb=1 / open_gop=0 / weightp=2 / keyint=250 / keyint_min=25 / scenecut=40 / intra_refresh=0 / rc_lookahead=40 / rc=2pass / mbtree=1 / bitrate=2499 / ratetol=1.0 / qcomp=0.60 / qpmin=0 / qpmax=69 / qpstep=4 / cplxblur=20.0 / qblur=0.5 / ip_ratio=1.40 / aq=1:1.00
    Language : English
    Default : Yes
    Forced : No
    Duration_Source : General_Duration

    Audio
    ID : 2
    Format : AC-3
    Format/Info : Audio Coding 3
    Commercial name : Dolby Digital
    Codec ID : A_AC3
    Duration : 10 min 34 s
    Bit rate mode : Constant
    Bit rate : 384 kb/s
    Channel(s) : 6 channels
    Channel layout : L R C LFE Ls Rs
    Sampling rate : 48.0 kHz
    Frame rate : 31.250 FPS (1536 SPF)
    Compression mode : Lossy
    Stream size : 29.1 MiB (13%)
    Service kind : Complete Main
    Default : Yes
    Forced : No
    Duration_Source : General_Duration


    Format : Matroska
    Format version : Version 2
    File size : 192 MiB
    Duration : 7 min 55 s
    Overall bit rate : 3 384 kb/s
    Encoded date : UTC 2011-04-30 04:46:07
    Writing application : mkvmerge v4.6.0 ('Still Crazy After All These Years') built on Mar 10 2011 02:50:32
    Writing library : libebml v1.2.0 + libmatroska v1.1.0

    Video
    ID : 1
    Format : AVC
    Format/Info : Advanced Video Codec
    Format profile : High@L3.1
    Format settings : CABAC / 4 Ref Frames
    Format settings, CABAC : Yes
    Format settings, Reference frames : 4 frames
    Codec ID : V_MPEG4/ISO/AVC
    Duration : 7 min 55 s
    Bit rate : 2 999 kb/s
    Width : 1 280 pixels
    Height : 720 pixels
    Display aspect ratio : 16:9
    Frame rate mode : Constant
    Frame rate : 29.970 (30000/1001) FPS
    Color space : YUV
    Chroma subsampling : 4:2:0
    Bit depth : 8 bits
    Scan type : Progressive
    Bits/(Pixel*Frame) : 0.109
    Stream size : 166 MiB (87%)
    Writing library : x264 core 114 r1924 08d04a4
    Encoding settings : cabac=1 / ref=3 / deblock=1:0:0 / analyse=0x3:0x113 / me=hex / subme=7 / psy=1 / psy_rd=1.00:0.00 / mixed_ref=1 / me_range=16 / chroma_me=1 / trellis=1 / 8x8dct=1 / cqm=0 / deadzone=21,11 / fast_pskip=1 / chroma_qp_offset=-2 / threads=6 / sliced_threads=0 / nr=0 / decimate=1 / interlaced=0 / constrained_intra=0 / bframes=3 / b_pyramid=2 / b_adapt=1 / b_bias=0 / direct=1 / weightb=1 / open_gop=0 / weightp=2 / keyint=250 / keyint_min=25 / scenecut=40 / intra_refresh=0 / rc_lookahead=40 / rc=2pass / mbtree=1 / bitrate=2999 / ratetol=1.0 / qcomp=0.60 / qpmin=0 / qpmax=69 / qpstep=4 / cplxblur=20.0 / qblur=0.5 / ip_ratio=1.40 / aq=1:1.00
    Language : English
    Default : Yes
    Forced : No
    Duration_Source : General_Duration

    Audio
    ID : 2
    Format : AC-3
    Format/Info : Audio Coding 3
    Commercial name : Dolby Digital
    Codec ID : A_AC3
    Duration : 7 min 55 s
    Bit rate mode : Constant
    Bit rate : 384 kb/s
    Channel(s) : 6 channels
    Channel layout : L R C LFE Ls Rs
    Sampling rate : 48.0 kHz
    Frame rate : 31.250 FPS (1536 SPF)
    Compression mode : Lossy
    Stream size : 21.7 MiB (11%)
    Service kind : Complete Main
    Default : Yes
    Forced : No
    Duration_Source : General_Duration


    Link(s):
    Hidden Content:
    You must either reply or click 'Like' to see the hidden information contained here.
     
  2. Loading...


  3. CELOBRAZiL

    CELOBRAZiL Well-Known Member Capper V . I . P. Donor

    Joined:
    Oct 2, 2013
    Messages:
    9,093
    Likes Received:
    34,047
    :love::love::love:

    Added GOOGLE DRIVE link! :)
     
    ThePixelFarm likes this.
  4. ThePixelFarm

    ThePixelFarm Livin' in a dream... Capper V . I . P. Uploader Archiver

    Joined:
    Aug 31, 2018
    Messages:
    2,534
    Likes Received:
    7,229
    Many thanks... :):victory::super:
     
    CELOBRAZiL likes this.
  5. brian182

    brian182 Well-Known Member

    Joined:
    Oct 14, 2013
    Messages:
    2,478
    Likes Received:
    154
    thanks
     
    CELOBRAZiL likes this.
  6. Vero91

    Vero91 Active Member

    Joined:
    Mar 19, 2015
    Messages:
    529
    Likes Received:
    108
    thanks
     
    CELOBRAZiL likes this.
  7. Rafaney

    Rafaney Member

    Joined:
    Oct 6, 2016
    Messages:
    203
    Likes Received:
    14
    queria muito essaaaa
     
  8. multimediafm

    multimediafm Well-Known Member Archiver Donor

    Joined:
    Mar 27, 2014
    Messages:
    18,367
    Likes Received:
    1,800
    Thanks:cool:
     
    CELOBRAZiL likes this.
  9. uminomiyako

    uminomiyako Well-Known Member

    Joined:
    May 28, 2016
    Messages:
    4,172
    Likes Received:
    269
    Thanks
     
    CELOBRAZiL likes this.
  10. Boyfriend

    Boyfriend Active Member

    Joined:
    Jun 15, 2020
    Messages:
    157
    Likes Received:
    89
    Thank you very much
     
    CELOBRAZiL likes this.
  11. hugonicolas

    hugonicolas Well-Known Member

    Joined:
    Aug 25, 2017
    Messages:
    1,001
    Likes Received:
    57
    gracias
     
    CELOBRAZiL likes this.
  12. MonstEric

    MonstEric New Member

    Joined:
    Jun 7, 2020
    Messages:
    6
    Likes Received:
    1
    thank u so much!!!
     
    CELOBRAZiL likes this.
  13. jan50

    jan50 Member

    Joined:
    May 25, 2019
    Messages:
    63
    Likes Received:
    3
    Thanks
     
    CELOBRAZiL likes this.
  14. Fernando

    Fernando Well-Known Member

    Joined:
    Jul 22, 2014
    Messages:
    1,500
    Likes Received:
    60
    gracias
     
    CELOBRAZiL likes this.
  15. rkgmade

    rkgmade Well-Known Member

    Joined:
    Sep 29, 2016
    Messages:
    3,502
    Likes Received:
    273
    thanks
     
    CELOBRAZiL likes this.
  16. Galaxys92

    Galaxys92 Member

    Joined:
    Aug 25, 2016
    Messages:
    62
    Likes Received:
    4
    thankies