Lady Gaga - Bad Romance (PALLADIA-AVC-1080i-AC3-DD2.0)

Discussion in 'PALLADIA' started by DETOX, Jun 1, 2014.

  1. poplover1228

    poplover1228 Member

    Joined:
    Jan 16, 2016
    Messages:
    31
    Likes Received:
    0
    thank you
     
  2. fightmebitch12

    fightmebitch12 New Member

    Joined:
    Mar 19, 2016
    Messages:
    17
    Likes Received:
    1
  3. nachostripped

    nachostripped Active Member

    Joined:
    Feb 5, 2015
    Messages:
    434
    Likes Received:
    26
  4. zlucaas

    zlucaas New Member

    Joined:
    Apr 23, 2016
    Messages:
    5
    Likes Received:
    2
    ILOVE IT- IN HD IS SO BETTER!!
    [​IMG]


    General

    ID : 1 (0x1)
    Complete name : Lady Gaga - Bad Romance PALLADIA AVC 1080i AC3 DD2.0.ts
    Format : MPEG-TS
    File size : 199 MiB
    Duration : 5mn 7s
    Overall bit rate mode : Variable
    Overall bit rate : 5 418 Kbps
    Maximum Overall bit rate : 35.5 Mbps

    Video
    ID : 4113 (0x1011)
    Menu ID : 1 (0x1)
    Format : AVC
    Format/Info : Advanced Video Codec
    Format profile : [email protected]
    Format settings, CABAC : Yes
    Format settings, ReFrames : 4 frames
    Codec ID : 27
    Duration : 5mn 6s
    Bit rate : 4 762 Kbps
    Width : 1 440 pixels
    Height : 1 080 pixels
    Display aspect ratio : 16:9
    Frame rate : 29.970 fps
    Standard : Component
    Color space : YUV
    Chroma subsampling : 4:2:0
    Bit depth : 8 bits
    Scan type : Interlaced
    Scan order : Top Field First
    Bits/(Pixel*Frame) : 0.102
    Stream size : 174 MiB (87%)
    Color primaries : BT.709
    Transfer characteristics : BT.709
    Matrix coefficients : BT.709

    Audio
    ID : 4352 (0x1100)
    Menu ID : 1 (0x1)
    Format : AC-3
    Format/Info : Audio Coding 3
    Mode extension : CM (complete main)
    Format settings, Endianness : Big
    Codec ID : 129
    Duration : 5mn 4s
    Bit rate mode : Constant
    Bit rate : 384 Kbps
    Channel(s) : 2 channels
    Channel positions : Front: L R
    Sampling rate : 48.0 KHz
    Bit depth : 16 bits
    Compression mode : Lossy
    Delay relative to video : 22ms
    Stream size : 14.0 MiB (7%)


    DOWNLOAD:

    MEGA

    ***Hidden content cannot be quoted.***

    Password: DETOX
    [/QUOTE]
     
  5. lukapekic1

    lukapekic1 Active Member

    Joined:
    Mar 5, 2016
    Messages:
    178
    Likes Received:
    235
    ikkkkkkkkk
     
  6. Jorge Barrionuevo

    Jorge Barrionuevo Well-Known Member

    Joined:
    Jun 9, 2015
    Messages:
    1,263
    Likes Received:
    494
    GRACIAS!
     
  7. lol500

    lol500 New Member

    Joined:
    Jun 30, 2016
    Messages:
    1
    Likes Received:
    0
    thank you
     
  8. RyanXGagaFan

    RyanXGagaFan Member

    Joined:
    Jun 11, 2016
    Messages:
    63
    Likes Received:
    2
    thanks detox!
     
  9. ronjonboi54545454

    ronjonboi54545454 New Member

    Joined:
    Aug 4, 2016
    Messages:
    9
    Likes Received:
    0
    DETOX
     
  10. Jomax213

    Jomax213 Member

    Joined:
    Apr 26, 2016
    Messages:
    55
    Likes Received:
    1
    #shook
     
  11. garry1987

    garry1987 New Member

    Joined:
    Aug 15, 2016
    Messages:
    3
    Likes Received:
    0
    Thanks!!
     
  12. alan

    alan Member

    Joined:
    Jun 27, 2015
    Messages:
    368
    Likes Received:
    12
    thanks you
     
  13. rikylouis14

    rikylouis14 Well-Known Member

    Joined:
    Jun 27, 2016
    Messages:
    731
    Likes Received:
    452
    thanks!
     
  14. Nobody123

    Nobody123 New Member

    Joined:
    Aug 28, 2016
    Messages:
    12
    Likes Received:
    0
    I used the password "DETOX" and nothing, I can't watch it :(
     
  15. ipmrm

    ipmrm Member

    Joined:
    Aug 30, 2016
    Messages:
    242
    Likes Received:
    13
    thanks
     
  16. Johan Pinzon

    Johan Pinzon Member

    Joined:
    Aug 15, 2016
    Messages:
    304
    Likes Received:
    12
  17. perfectillusion

    perfectillusion Member

    Joined:
    Sep 11, 2016
    Messages:
    114
    Likes Received:
    9
  18. CristianMatias

    CristianMatias HIGH DEFINITION

    Joined:
    Sep 17, 2016
    Messages:
    828
    Likes Received:
    21
    the monsters
     
  19. thexfame

    thexfame New Member

    Joined:
    Oct 2, 2016
    Messages:
    1
    Likes Received:
    0
    Thank you
     
  20. shelopanini

    shelopanini Member

    Joined:
    Oct 26, 2016
    Messages:
    52
    Likes Received:
    2