Lady Gaga - Bad Romance (PALLADIA-AVC-1080i-AC3-DD2.0)

Discussion in 'PALLADIA' started by DETOX, Jun 1, 2014.

  1. DETOX

    DETOX Well-Known Member V . I . P. Uploader

    Joined:
    Feb 20, 2014
    Messages:
    2,748
    Likes Received:
    13,843

    [​IMG]



    General

    ID : 1 (0x1)
    Complete name : Lady Gaga - Bad Romance PALLADIA AVC 1080i AC3 DD2.0.ts
    Format : MPEG-TS
    File size : 199 MiB
    Duration : 5mn 7s
    Overall bit rate mode : Variable
    Overall bit rate : 5 418 Kbps
    Maximum Overall bit rate : 35.5 Mbps

    Video
    ID : 4113 (0x1011)
    Menu ID : 1 (0x1)
    Format : AVC
    Format/Info : Advanced Video Codec
    Format profile : Main@L4.0
    Format settings, CABAC : Yes
    Format settings, ReFrames : 4 frames
    Codec ID : 27
    Duration : 5mn 6s
    Bit rate : 4 762 Kbps
    Width : 1 440 pixels
    Height : 1 080 pixels
    Display aspect ratio : 16:9
    Frame rate : 29.970 fps
    Standard : Component
    Color space : YUV
    Chroma subsampling : 4:2:0
    Bit depth : 8 bits
    Scan type : Interlaced
    Scan order : Top Field First
    Bits/(Pixel*Frame) : 0.102
    Stream size : 174 MiB (87%)
    Color primaries : BT.709
    Transfer characteristics : BT.709
    Matrix coefficients : BT.709

    Audio
    ID : 4352 (0x1100)
    Menu ID : 1 (0x1)
    Format : AC-3
    Format/Info : Audio Coding 3
    Mode extension : CM (complete main)
    Format settings, Endianness : Big
    Codec ID : 129
    Duration : 5mn 4s
    Bit rate mode : Constant
    Bit rate : 384 Kbps
    Channel(s) : 2 channels
    Channel positions : Front: L R
    Sampling rate : 48.0 KHz
    Bit depth : 16 bits
    Compression mode : Lossy
    Delay relative to video : 22ms
    Stream size : 14.0 MiB (7%)


    DOWNLOAD:

    MEGA

    Hidden Content:
    You must reply before you can see the hidden data contained here.
    Password: DETOX
     
  2. Loading...


  3. mdrf1

    mdrf1 Member

    Joined:
    May 17, 2014
    Messages:
    329
    Likes Received:
    26
    This is what i wanted.
    thanks you so much!
     
  4. seesagun

    seesagun Member

    Joined:
    Mar 22, 2014
    Messages:
    227
    Likes Received:
    1
    Thanks
     
  5. Joseph

    Joseph Active Member

    Joined:
    Dec 10, 2013
    Messages:
    729
    Likes Received:
    147
    thanks
     
  6. mayday4352767

    mayday4352767 Member

    Joined:
    Apr 15, 2014
    Messages:
    30
    Likes Received:
    1
  7. SpyrosMonster

    SpyrosMonster Active Member

    Joined:
    Jan 27, 2014
    Messages:
    653
    Likes Received:
    107
    thank you!! <3
     
  8. tsm897

    tsm897 Member

    Joined:
    Apr 16, 2014
    Messages:
    129
    Likes Received:
    3
  9. miguelmr87

    miguelmr87 Active Member

    Joined:
    Dec 20, 2013
    Messages:
    467
    Likes Received:
    148
    is this the Best Version for Bad Roance?
     
  10. alexandra

    alexandra Member

    Joined:
    May 14, 2014
    Messages:
    46
    Likes Received:
    0
  11. DETOX

    DETOX Well-Known Member V . I . P. Uploader

    Joined:
    Feb 20, 2014
    Messages:
    2,748
    Likes Received:
    13,843
  12. Hen2302

    Hen2302 Member

    Joined:
    Feb 4, 2014
    Messages:
    393
    Likes Received:
    7
    Merci beaucoup
     
  13. Harry

    Harry Member

    Joined:
    Mar 4, 2014
    Messages:
    289
    Likes Received:
    3
    Thanks! ;)
     
  14. Gabriel Teixeira Pinto

    Gabriel Teixeira Pinto Active Member

    Joined:
    Apr 16, 2014
    Messages:
    740
    Likes Received:
    126
  15. OERB

    OERB Member

    Joined:
    Jan 30, 2014
    Messages:
    179
    Likes Received:
    11
    wqqqqqqqqqqqqqqqqqqqqqqqqqqqqqqqqqqqqqqqqqqqqqqw
     
  16. khan

    khan Active Member

    Joined:
    May 11, 2014
    Messages:
    965
    Likes Received:
    46
    thanks
     
  17. Lucas Rubiolo

    Lucas Rubiolo New Member

    Joined:
    Jul 15, 2014
    Messages:
    20
    Likes Received:
    3
     
  18. Gagaist

    Gagaist New Member

    Joined:
    Jul 17, 2014
    Messages:
    5
    Likes Received:
    1
     
  19. slill

    slill Member

    Joined:
    Jul 25, 2014
    Messages:
    910
    Likes Received:
    9
    thanks for sharing
     
  20. Katheryn

    Katheryn Well-Known Member

    Joined:
    Nov 29, 2013
    Messages:
    994
    Likes Received:
    2,169
    Nice ! Thanks
     
  21. Tumate20

    Tumate20 Well-Known Member

    Joined:
    Sep 13, 2014
    Messages:
    159
    Likes Received:
    300
    Thanks!!!!!!!!!!!!!!!!!