Lady Gaga - Applause (VH1HD-1080i-DD5.1-CELOBRAZiL)-HDMania

Discussion in 'VH1 HD' started by DETOX, May 2, 2016.

  1. DETOX

    DETOX If love were liquid it would drown me... ♫ V . I . P. Uploader

    Joined:
    Feb 20, 2014
    Messages:
    4,969
    Likes Received:
    43,362
    [​IMG]
    Code:
    General
    ID                                       : 1 (0x1)
    Complete name                            : Lady Gaga - Applause (VH1HD-1080i-DD5.1-CELOBRAZiL)-HDMania.ts
    Format                                   : MPEG-TS
    File size                                : 222 MiB
    Duration                                 : 3mn 34s
    Overall bit rate mode                    : Variable
    Overall bit rate                         : 8 674 Kbps
    
    Video
    ID                                       : 5408 (0x1520)
    Menu ID                                  : 1 (0x1)
    Format                                   : AVC
    Format/Info                              : Advanced Video Codec
    Format profile                           : Main@L4
    Format settings, CABAC                   : Yes
    Format settings, ReFrames                : 2 frames
    Codec ID                                 : 27
    Duration                                 : 3mn 34s
    Bit rate                                 : 7 857 Kbps
    Width                                    : 1 920 pixels
    Height                                   : 1 080 pixels
    Display aspect ratio                     : 16:9
    Frame rate                               : 29.970 fps
    Color space                              : YUV
    Chroma subsampling                       : 4:2:0
    Bit depth                                : 8 bits
    Scan type                                : MBAFF
    Scan order                               : Top Field First
    Bits/(Pixel*Frame)                       : 0.126
    Stream size                              : 201 MiB (91%)
    Color range                              : Limited
    Color primaries                          : BT.709
    Transfer characteristics                 : BT.709
    Matrix coefficients                      : BT.709
    
    Audio
    ID                                       : 5409 (0x1521)
    Menu ID                                  : 1 (0x1)
    Format                                   : AC-3
    Format/Info                              : Audio Coding 3
    Mode extension                           : CM (complete main)
    Format settings, Endianness              : Big
    Codec ID                                 : 129
    Duration                                 : 3mn 34s
    Bit rate mode                            : Constant
    Bit rate                                 : 384 Kbps
    Channel(s)                               : 6 channels
    Channel positions                        : Front: L C R, Side: L R, LFE
    Sampling rate                            : 48.0 KHz
    Bit depth                                : 16 bits
    Compression mode                         : Lossy
    Stream size                              : 9.82 MiB (4%)
    Language                                 : English
    Server: pogoplug
    Hidden Content:
    You must reply before you can see the hidden data contained here.
     
  2. Loading...


  3. aryanemelilo

    aryanemelilo New Member

    Joined:
    Apr 9, 2017
    Messages:
    10
    Likes Received:
    0
    thank you
     
  4. DiVenturas

    DiVenturas Well-Known Member

    Joined:
    Oct 21, 2015
    Messages:
    2,778
    Likes Received:
    162
  5. matangi

    matangi New Member

    Joined:
    Oct 13, 2017
    Messages:
    27
    Likes Received:
    0
    thanks