Lady Antebellum - Need You Now (MTVIdol-1080i-DD2.0)-Olgold

Discussion in 'MTV IDOL' started by Olgold, Apr 14, 2017.

  1. Olgold

    Olgold Well-Known Member Capper

    Joined:
    Aug 19, 2015
    Messages:
    436
    Likes Received:
    2,052
    Lady Antebellum - Need You Now
    [​IMG]
    General
    Format : MPEG-TS
    File size : 131 MiB
    Duration : 3 min 54 s
    Overall bit rate mode : Variable
    Overall bit rate : 4 693 kb/s

    Video
    Format : AVC
    Format/Info : Advanced Video Codec
    Format profile : High@L4
    Format settings, CABAC : Yes
    Format settings, ReFrames : 4 frames
    Format settings, GOP : M=8, N=24
    Duration : 3 min 54 s
    Bit rate : 4 267 kb/s
    Width : 1 920 pixels
    Height : 1 080 pixels
    Display aspect ratio : 16:9
    Frame rate : 25.000 FPS
    Standard : Component
    Color space : YUV
    Chroma subsampling : 4:2:0
    Bit depth : 8 bits
    Scan type : MBAFF
    Scan type, store method : Interleaved fields
    Scan order : Top Field First
    Bits/(Pixel*Frame) : 0.082
    Stream size : 119 MiB (91%)

    Audio
    Format : AC-3
    Format/Info : Audio Coding 3
    Mode extension : CM (complete main)
    Format settings, Endianness : Big
    Duration : 3 min 54 s
    Bit rate mode : Constant
    Bit rate : 192 kb/s
    Channel(s) : 2 channels
    Channel positions : Front: L R
    Sampling rate : 48.0 kHz
    Frame rate : 31.250 FPS (1536 spf)
    Compression mode : Lossy
    Delay relative to video : -28 ms
    Stream size : 5.37 MiB (4%)
    Password: Olgold

    Hidden Content:
    You must reply before you can see the hidden data contained here.
     
  2. CELOBRAZiL

    CELOBRAZiL Well-Known Member Capper V . I . P. Donor

    Joined:
    Oct 2, 2013
    Messages:
    9,733
    Likes Received:
    36,806
    Thank you so much! :)
     
  3. thesparkly1

    thesparkly1 Well-Known Member

    Joined:
    May 5, 2017
    Messages:
    1,302
    Likes Received:
    109
    thank you
     
  4. rhea

    rhea Well-Known Member

    Joined:
    Jan 6, 2014
    Messages:
    11,480
    Likes Received:
    2,207
    thanks
     
  5. brownbradpitt613

    brownbradpitt613 Active Member

    Joined:
    Sep 3, 2017
    Messages:
    755
    Likes Received:
    32
    danke shun!
     
    William Playsson II likes this.
  6. nickasamiya

    nickasamiya Member

    Joined:
    Sep 25, 2016
    Messages:
    351
    Likes Received:
    17
    obrigado
     
  7. ildson

    ildson Active Member

    Joined:
    Nov 4, 2017
    Messages:
    510
    Likes Received:
    56
    thanks
     
  8. ETAOI

    ETAOI Member

    Joined:
    Feb 13, 2017
    Messages:
    677
    Likes Received:
    3
    !!!!!!!!!!!!!!!!!!!!!!!!!!!!!!!!!!!!!!!!
     
  9. andy80

    andy80 Member

    Joined:
    Sep 25, 2016
    Messages:
    216
    Likes Received:
    18
    thank you
     
  10. schicchi

    schicchi Member

    Joined:
    Oct 11, 2018
    Messages:
    324
    Likes Received:
    15
    thank you
     
  11. marvec141989

    marvec141989 Member

    Joined:
    Apr 6, 2019
    Messages:
    579
    Likes Received:
    18
    muchas gracias por el aporte!
     
  12. Satya

    Satya Active Member

    Joined:
    Jul 17, 2019
    Messages:
    442
    Likes Received:
    104
    Thanks
     
  13. Olaflyn

    Olaflyn Well-Known Member

    Joined:
    May 25, 2017
    Messages:
    1,567
    Likes Received:
    76
    Thanks
     
  14. Riz786

    Riz786 Active Member

    Joined:
    Sep 12, 2020
    Messages:
    299
    Likes Received:
    30
    thanks u
     
  15. uiasp

    uiasp Member

    Joined:
    Aug 14, 2020
    Messages:
    50
    Likes Received:
    0
    thanks
     
  16. brendo098

    brendo098 Active Member

    Joined:
    Oct 1, 2017
    Messages:
    426
    Likes Received:
    78
    obrigado