Lady Antebellum - Need You Now (1080p-thankstome)

Discussion in 'Music Videos' started by thankstome, Jul 10, 2016.

  1. michaeljfox

    michaeljfox Member

    Joined:
    Oct 15, 2016
    Messages:
    127
    Likes Received:
    4
    thankssss
     
  2. benperex

    benperex New Member

    Joined:
    Jun 17, 2017
    Messages:
    6
    Likes Received:
    0
    Downloading...
     
  3. bonny

    bonny Well-Known Member

    Joined:
    Jun 7, 2016
    Messages:
    1,642
    Likes Received:
    75
    thanks
     
  4. wsimpi

    wsimpi Member

    Joined:
    Aug 29, 2016
    Messages:
    48
    Likes Received:
    1
    thanks
     
  5. marco25

    marco25 Well-Known Member

    Joined:
    Oct 5, 2016
    Messages:
    1,569
    Likes Received:
    857
    Thanks
     
  6. edsonavril33

    edsonavril33 Member

    Joined:
    Jun 17, 2017
    Messages:
    283
    Likes Received:
    15
  7. janlyn

    janlyn Member

    Joined:
    Aug 10, 2017
    Messages:
    446
    Likes Received:
    17
    THANKS
     
  8. Regis

    Regis Well-Known Member

    Joined:
    Jul 14, 2015
    Messages:
    1,285
    Likes Received:
    49
    Obrigado
     
  9. nastybutf4ncy

    nastybutf4ncy Stripped ♪

    Joined:
    Jun 25, 2017
    Messages:
    1,310
    Likes Received:
    677
    omg thank you so much!
     
  10. ragingspears

    ragingspears Member

    Joined:
    Mar 13, 2014
    Messages:
    331
    Likes Received:
    4
    Thank you very much
     
  11. markitomg

    markitomg Active Member

    Joined:
    May 24, 2016
    Messages:
    797
    Likes Received:
    77
    tnks 4 it man
     
  12. Josue Carminatti

    Josue Carminatti Member

    Joined:
    Jul 19, 2015
    Messages:
    439
    Likes Received:
    14
  13. hdverdammt

    hdverdammt Active Member

    Joined:
    Aug 22, 2017
    Messages:
    345
    Likes Received:
    64
    member[​IMG]
    [​IMG]
    [​IMG]
    [​IMG]
    Code:
    Format                                   : MPEG-4
    Format profile                           : Base Media / Version 2
    Codec ID                                 : mp42
    File size                                : 152 MiB
    Duration                                 : 4mn 29s
    Overall bit rate mode                    : Variable
    Overall bit rate                         : 4 725 Kbps
    Encoded date                             : UTC 2016-01-15 00:47:19
    Tagged date                              : UTC 2016-01-15 00:47:19
    
    Video
    ID                                       : 1
    Format                                   : AVC
    Format/Info                              : Advanced Video Codec
    Format profile                           : High@L4.0
    Format settings, CABAC                   : Yes
    Format settings, ReFrames                : 4 frames
    Codec ID                                 : avc1
    Codec ID/Info                            : Advanced Video Coding
    Duration                                 : 4mn 29s
    Bit rate                                 : 4 500 Kbps
    Width                                    : 1 916 pixels
    Height                                   : 1 080 pixels
    Display aspect ratio                     : 16:9
    Frame rate mode                          : Constant
    Frame rate                               : 29.970 fps
    Color space                              : YUV
    Chroma subsampling                       : 4:2:0
    Bit depth                                : 8 bits
    Scan type                                : Progressive
    Bits/(Pixel*Frame)                       : 0.073
    Stream size                              : 144 MiB (95%)
    Writing library                          : x264 core 148 r11 7599210
    Encoding settings                        : cabac=1 / ref=4 / deblock=1:0:0 / analyse=0x3:0x113 / me=umh / subme=8 / psy=1 / psy_rd=1.00:0.00 / mixed_ref=1 / me_range=16 / chroma_me=1 / trellis=1 / 8x8dct=1 / cqm=0 / deadzone=21,11 / fast_pskip=1 / chroma_qp_offset=-2 / threads=34 / lookahead_threads=5 / sliced_threads=0 / nr=0 / decimate=1 / interlaced=0 / bluray_compat=0 / stitchable=1 / constrained_intra=0 / bframes=3 / b_pyramid=2 / b_adapt=2 / b_bias=0 / direct=3 / weightb=1 / open_gop=0 / weightp=2 / keyint=infinite / keyint_min=29 / scenecut=40 / intra_refresh=0 / rc_lookahead=50 / rc=2pass / mbtree=1 / bitrate=4500 / ratetol=1.0 / qcomp=0.60 / qpmin=5 / qpmax=69 / qpstep=4 / cplxblur=20.0 / qblur=0.5 / vbv_maxrate=4950 / vbv_bufsize=13500 / nal_hrd=none / filler=0 / ip_ratio=1.40 / aq=1:1.00
    Encoded date                             : UTC 2016-01-15 00:47:19
    Tagged date                              : UTC 2016-01-15 00:47:19
    Color primaries                          : BT.709
    Transfer characteristics                 : BT.709
    Matrix coefficients                      : BT.709
    
    Audio
    ID                                       : 2
    Format                                   : AAC
    Format/Info                              : Advanced Audio Codec
    Format profile                           : LC
    Codec ID                                 : 40
    Duration                                 : 4mn 29s
    Bit rate mode                            : Variable
    Bit rate                                 : 235 Kbps
    Channel(s)                               : 2 channels
    Channel positions                        : Front: L R
    Sampling rate                            : 48.0 KHz
    Compression mode                         : Lossy
    Delay relative to video                  : 67ms
    Stream size                              : 7.55 MiB (5%)
    Encoded date                             : UTC 2016-01-15 00:47:19
    Tagged date                              : UTC 2016-01-15 00:47:19
    
    
    ***Hidden content cannot be quoted.***[/QUOTE]
     
  14. streetlamp

    streetlamp Member

    Joined:
    Jun 8, 2016
    Messages:
    40
    Likes Received:
    1
  15. Ashh

    Ashh Member

    Joined:
    Jun 4, 2017
    Messages:
    103
    Likes Received:
    2
    Thank you
     
  16. Bruno77

    Bruno77 Well-Known Member

    Joined:
    Sep 12, 2016
    Messages:
    2,032
    Likes Received:
    40
    Thanks
     
  17. ETAOI

    ETAOI Member

    Joined:
    Feb 13, 2017
    Messages:
    683
    Likes Received:
    3
    !!!!!!!!!!!!!!!!!!!!!!!
     
  18. mujjme

    mujjme Member

    Joined:
    Aug 22, 2017
    Messages:
    215
    Likes Received:
    1
    That's Wonderful!!!
     
  19. marianocas6

    marianocas6 Member

    Joined:
    Apr 27, 2017
    Messages:
    48
    Likes Received:
    3
    Thank you so much!!
     
  20. alemancha

    alemancha Member

    Joined:
    Apr 5, 2017
    Messages:
    444
    Likes Received:
    23
    thankss