HDTV La Ley - Aqui y El Duelo (Adal El Show 09-04-2016) HDTV 1080i DD2-earMy

Discussion in 'HD Live Performances' started by tomkins, Apr 10, 2016.

  1. tomkins

    tomkins Active Member

    Joined:
    Mar 28, 2014
    Messages:
    255
    Likes Received:
    136
    [​IMG]

    Video
    ID : 4113 (0x1011)
    Menu ID : 1 (0x1)
    Format : AVC
    Format/Info : Advanced Video Codec
    Format profile : High@L4
    Format settings, CABAC : Yes
    Format settings, ReFrames : 2 frames
    Format settings, GOP : M=3, N=13
    Codec ID : 27
    Duration : 2mn 48s
    Bit rate : 15.2 Mbps
    Width : 1 920 pixels
    Height : 1 080 pixels
    Display aspect ratio : 16:9
    Frame rate : 29.970 (30000/1001) fps
    Color space : YUV
    Chroma subsampling : 4:2:0
    Bit depth : 8 bits
    Scan type : MBAFF
    Scan type, store method : Interleaved fields
    Scan order : Top Field First
    Bits/(Pixel*Frame) : 0.244
    Stream size : 304 MiB (94%)

    Audio
    ID : 4352 (0x1100)
    Menu ID : 1 (0x1)
    Format : AC-3
    Format/Info : Audio Coding 3
    Mode extension : CM (complete main)
    Format settings, Endianness : Big
    Codec ID : 129
    Duration : 2mn 48s
    Bit rate mode : Constant
    Bit rate : 256 Kbps
    Channel(s) : 2 channels
    Channel positions : Front: L R
    Sampling rate : 48.0 KHz
    Frame rate : 31.250 fps (1536 spf)
    Compression mode : Lossy
    Delay relative to video : 42ms
    Stream size : 5.13 MiB (2%)
    [​IMG]

    Hidden Content:
    You must reply before you can see the hidden data contained here.
     
  2. Loading...


  3. royevilone

    royevilone Well-Known Member Uploader Donor

    Joined:
    Feb 16, 2016
    Messages:
    1,277
    Likes Received:
    1,515
    Thank you!
     
  4. wilmer ardila

    wilmer ardila Well-Known Member

    Joined:
    Nov 14, 2014
    Messages:
    1,307
    Likes Received:
    66
    thank you
     
  5. gotiko19

    gotiko19 Member

    Joined:
    Oct 27, 2013
    Messages:
    238
    Likes Received:
    16
    thanks
     
  6. chevorodriguez

    chevorodriguez Active Member

    Joined:
    Nov 24, 2015
    Messages:
    675
    Likes Received:
    110
    excelente como siempre esta pagina
     
  7. pinky2

    pinky2 Active Member

    Joined:
    Dec 12, 2015
    Messages:
    921
    Likes Received:
    120
    Thank you!
     
  8. gonprado

    gonprado Active Member

    Joined:
    Mar 14, 2014
    Messages:
    236
    Likes Received:
    38
    thanks
     
  9. revilo18

    revilo18 Well-Known Member

    Joined:
    May 26, 2016
    Messages:
    2,360
    Likes Received:
    120
    thankk
     
  10. brianvip

    brianvip Active Member

    Joined:
    Oct 2, 2014
    Messages:
    801
    Likes Received:
    36
    thank you
     
  11. miguelmr87

    miguelmr87 Well-Known Member

    Joined:
    Dec 20, 2013
    Messages:
    1,992
    Likes Received:
    397
    thabks alot
     
  12. tapions

    tapions Well-Known Member

    Joined:
    Aug 30, 2016
    Messages:
    1,081
    Likes Received:
    98
    gracias
     
  13. exterminador

    exterminador Well-Known Member

    Joined:
    Jul 3, 2016
    Messages:
    2,640
    Likes Received:
    226
  14. tknobi

    tknobi Well-Known Member

    Joined:
    Feb 22, 2014
    Messages:
    706
    Likes Received:
    1,743
    thanks
     
  15. estebania

    estebania Well-Known Member

    Joined:
    Dec 2, 2016
    Messages:
    460
    Likes Received:
    413
    Thanks
     
  16. Adaros

    Adaros Active Member

    Joined:
    Jun 5, 2016
    Messages:
    790
    Likes Received:
    99
    Thanks
     
  17. MasterDemon

    MasterDemon Member

    Joined:
    Mar 14, 2017
    Messages:
    206
    Likes Received:
    16
    gracias amigo
     
  18. logrono

    logrono Well-Known Member

    Joined:
    Mar 8, 2017
    Messages:
    1,504
    Likes Received:
    919
    Clasicos de clasicos, gracias.
     
  19. naruichiiss

    naruichiiss Member

    Joined:
    Oct 24, 2018
    Messages:
    180
    Likes Received:
    4
  20. orionN

    orionN Active Member

    Joined:
    Jan 26, 2018
    Messages:
    811
    Likes Received:
    42