CC [L] Whitney Houston - I Will Always Love You (PARAMOUNTHD-1080i-DD2.0-CELOBRAZiL) [CC]-HDMania

Discussion in 'PARAMOUNT' started by Snorom6, Jun 6, 2016.

  1. Snorom6

    Snorom6 Well-Known Member Uploader

    Joined:
    Dec 17, 2015
    Messages:
    4,244
    Likes Received:
    4,352
    [L] Whitney Houston - I Will Always Love You (PARAMOUNTHD-1080i-DD2.0-CELOBRAZiL) [CC]-HDMania


    [​IMG]


    Code:
    General
    ID                             : 1 (0x1)
    Complete name                  : [L] Whitney Houston - I Will Always Love You (PARAMOUNTHD-1080i-DD2.0-CELOBRAZiL) [CC]-HDMania.ts
    Format                         : MPEG-TS
    File size                      : 256 MiB
    Duration                       : 4mn 33s
    Overall bit rate mode          : Variable
    Overall bit rate               : 7 847 Kbps
    Law rating                     : N/A
    
    Video
    ID                             : 6960 (0x1B30)
    Menu ID                        : 658 (0x292)
    Format                         : AVC
    Format/Info                    : Advanced Video Codec
    Format profile                 : [email protected]
    Format settings, CABAC         : Yes
    Format settings, ReFrames      : 3 frames
    Codec ID                       : 27
    Duration                       : 4mn 33s
    Bit rate                       : 7 072 Kbps
    Width                          : 1 920 pixels
    Height                         : 1 080 pixels
    Display aspect ratio           : 16:9
    Frame rate                     : 29.970 fps
    Color space                    : YUV
    Chroma subsampling             : 4:2:0
    Bit depth                      : 8 bits
    Scan type                      : MBAFF
    Scan order                     : Top Field First
    Bits/(Pixel*Frame)             : 0.114
    Stream size                    : 231 MiB (90%)
    
    Audio #1
    ID                             : 6961 (0x1B31)
    Menu ID                        : 658 (0x292)
    Format                         : AC-3
    Format/Info                    : Audio Coding 3
    Mode extension                 : CM (complete main)
    Format settings, Endianness    : Big
    Codec ID                       : 129
    Duration                       : 4mn 33s
    Bit rate mode                  : Constant
    Bit rate                       : 192 Kbps
    Channel(s)                     : 2 channels
    Channel positions              : Front: L R
    Sampling rate                  : 48.0 KHz
    Compression mode               : Lossy
    Stream size                    : 6.27 MiB (2%)
    Language                       : Portuguese
    
    Audio #2
    ID                             : 6962 (0x1B32)
    Menu ID                        : 658 (0x292)
    Format                         : AC-3
    Format/Info                    : Audio Coding 3
    Mode extension                 : CM (complete main)
    Format settings, Endianness    : Big
    Codec ID                       : 129
    Duration                       : 4mn 33s
    Bit rate mode                  : Constant
    Bit rate                       : 192 Kbps
    Channel(s)                     : 2 channels
    Channel positions              : Front: L R
    Sampling rate                  : 48.0 KHz
    Compression mode               : Lossy
    Stream size                    : 6.27 MiB (2%)
    Language                       : English
    
    Text #1
    ID                             : 6960 (0x1B30)-CC1
    Menu ID                        : 658 (0x292)
    Format                         : EIA-608
    Muxing mode                    : SCTE 128 / DTVCC Transport
    Muxing mode, more info         : Muxed in Video #1
    Duration                       : 4mn 33s
    Bit rate mode                  : Constant
    Stream size                    : 0.00 Byte (0%)
    
    Text #2
    ID                             : 6960 (0x1B30)-1
    Menu ID                        : 658 (0x292)
    Format                         : EIA-708
    Muxing mode                    : SCTE 128 / DTVCC Transport
    Muxing mode, more info         : Muxed in Video #1
    Duration                       : 4mn 33s
    Bit rate mode                  : Constant
    Stream size                    : 0.00 Byte (0%)
    
    

    Hidden Content:
    You must either reply or click 'Like' to see the hidden information contained here.
    Hidden Content:
    You must either reply or click 'Like' to see the hidden information contained here.
     
  2. Loading...


  3. Puchacz93

    Puchacz93 Well-Known Member

    Joined:
    Feb 4, 2015
    Messages:
    1,206
    Likes Received:
    710
    Thank you.:love:
     
    Snorom6 likes this.
  4. Jorge Barrionuevo

    Jorge Barrionuevo Well-Known Member

    Joined:
    Jun 9, 2015
    Messages:
    1,029
    Likes Received:
    341
    GRACIAS!
     
    Snorom6 likes this.
  5. tapions

    tapions Active Member

    Joined:
    Aug 30, 2016
    Messages:
    857
    Likes Received:
    63
    gracias
     
    Snorom6 likes this.
  6. CristianMatias

    CristianMatias Member

    Joined:
    Sep 17, 2016
    Messages:
    608
    Likes Received:
    19
    Whitney
     
    Snorom6 likes this.
  7. kingover

    kingover New Member

    Joined:
    Jun 21, 2016
    Messages:
    27
    Likes Received:
    0
    thanks
     
  8. JPGAmbrosino

    JPGAmbrosino Member

    Joined:
    Jul 30, 2016
    Messages:
    190
    Likes Received:
    5
    tXS A LOTTTTT
     
  9. kassiu wehmuth

    kassiu wehmuth Member

    Joined:
    Jun 7, 2015
    Messages:
    199
    Likes Received:
    13
  10. looky

    looky Member

    Joined:
    Mar 22, 2017
    Messages:
    182
    Likes Received:
    4
    gracias.
     
  11. axe1234share

    axe1234share New Member

    Joined:
    Apr 27, 2017
    Messages:
    24
    Likes Received:
    0
  12. tn5656

    tn5656 Member

    Joined:
    Jan 20, 2017
    Messages:
    213
    Likes Received:
    2
    thanks a lot