CC [L] Whitney Houston - I Will Always Love You (PARAMOUNTHD-1080i-DD2.0-CELOBRAZiL) [CC]-HDMania

Discussion in 'PARAMOUNT' started by DETOX, Jan 15, 2016.

  1. DETOX

    DETOX Well-Known Member V . I . P. Uploader

    Joined:
    Feb 20, 2014
    Messages:
    2,887
    Likes Received:
    18,520
    [​IMG]
    Code:
    General
    ID                                       : 1 (0x1)
    Complete name                            : [L] Whitney Houston - I Will Always Love You (PARAMOUNTHD-1080i-DD2.0-CELOBRAZiL) [CC]-HDMania.ts
    Format                                   : MPEG-TS
    File size                                : 256 MiB
    Duration                                 : 4mn 33s
    Overall bit rate mode                    : Variable
    Overall bit rate                         : 7 847 Kbps
    Law rating                               : N/A
    
    Video
    ID                                       : 6960 (0x1B30)
    Menu ID                                  : 658 (0x292)
    Format                                   : AVC
    Format/Info                              : Advanced Video Codec
    Format profile                           : [email protected]
    Format settings, CABAC                   : Yes
    Format settings, ReFrames                : 3 frames
    Codec ID                                 : 27
    Duration                                 : 4mn 33s
    Bit rate                                 : 7 072 Kbps
    Width                                    : 1 920 pixels
    Height                                   : 1 080 pixels
    Display aspect ratio                     : 16:9
    Frame rate                               : 29.970 fps
    Color space                              : YUV
    Chroma subsampling                       : 4:2:0
    Bit depth                                : 8 bits
    Scan type                                : MBAFF
    Scan order                               : Top Field First
    Bits/(Pixel*Frame)                       : 0.114
    Stream size                              : 231 MiB (90%)
    
    Audio #1
    ID                                       : 6961 (0x1B31)
    Menu ID                                  : 658 (0x292)
    Format                                   : AC-3
    Format/Info                              : Audio Coding 3
    Mode extension                           : CM (complete main)
    Format settings, Endianness              : Big
    Codec ID                                 : 129
    Duration                                 : 4mn 33s
    Bit rate mode                            : Constant
    Bit rate                                 : 192 Kbps
    Channel(s)                               : 2 channels
    Channel positions                        : Front: L R
    Sampling rate                            : 48.0 KHz
    Bit depth                                : 16 bits
    Compression mode                         : Lossy
    Stream size                              : 6.27 MiB (2%)
    Language                                 : Portuguese
    
    Audio #2
    ID                                       : 6962 (0x1B32)
    Menu ID                                  : 658 (0x292)
    Format                                   : AC-3
    Format/Info                              : Audio Coding 3
    Mode extension                           : CM (complete main)
    Format settings, Endianness              : Big
    Codec ID                                 : 129
    Duration                                 : 4mn 33s
    Bit rate mode                            : Constant
    Bit rate                                 : 192 Kbps
    Channel(s)                               : 2 channels
    Channel positions                        : Front: L R
    Sampling rate                            : 48.0 KHz
    Bit depth                                : 16 bits
    Compression mode                         : Lossy
    Stream size                              : 6.27 MiB (2%)
    Language                                 : English
    
    Text #1
    ID                                       : 6960 (0x1B30)-CC1
    Menu ID                                  : 658 (0x292)
    Format                                   : EIA-608
    Muxing mode                              : SCTE 128 / DTVCC Transport
    Muxing mode, more info                   : Muxed in Video #1
    Duration                                 : 4mn 33s
    Bit rate mode                            : Constant
    Stream size                              : 0.00 Byte (0%)
    
    Text #2
    ID                                       : 6960 (0x1B30)-1
    Menu ID                                  : 658 (0x292)
    Format                                   : EIA-708
    Muxing mode                              : SCTE 128 / DTVCC Transport
    Muxing mode, more info                   : Muxed in Video #1
    Duration                                 : 4mn 33s
    Bit rate mode                            : Constant
    Stream size                              : 0.00 Byte (0%)
    Server: cloud.mail.ru
    Hidden Content:
    You must reply before you can see the hidden data contained here.
     
  2. Loading...


  3. Puchacz93

    Puchacz93 Well-Known Member

    Joined:
    Feb 4, 2015
    Messages:
    1,206
    Likes Received:
    710
    Thank you for Nippy.:love:
     
  4. Snorom6

    Snorom6 Well-Known Member Uploader

    Joined:
    Dec 17, 2015
    Messages:
    4,244
    Likes Received:
    4,352
  5. BinhTVT

    BinhTVT Member

    Joined:
    Jun 30, 2015
    Messages:
    179
    Likes Received:
    3
    thank you very much
     
  6. tiemcanxien2

    tiemcanxien2 Member

    Joined:
    Oct 7, 2013
    Messages:
    71
    Likes Received:
    26
    thank you a lot
     
  7. faz

    faz Member

    Joined:
    Jan 9, 2014
    Messages:
    265
    Likes Received:
    2
    thanks
     
  8. rhea

    rhea Well-Known Member

    Joined:
    Jan 6, 2014
    Messages:
    5,870
    Likes Received:
    435
    thank you so much! :)
     
  9. TrendMusic

    TrendMusic Well-Known Member

    Joined:
    Oct 7, 2013
    Messages:
    1,167
    Likes Received:
    74
    thanks for classic
     
  10. gayway

    gayway Active Member

    Joined:
    Mar 10, 2016
    Messages:
    846
    Likes Received:
    48
    Thank You!
     
  11. Clannadan

    Clannadan Active Member

    Joined:
    Jun 17, 2016
    Messages:
    143
    Likes Received:
    27
    Thanks!
     
  12. tapions

    tapions Active Member

    Joined:
    Aug 30, 2016
    Messages:
    857
    Likes Received:
    63
    gracias
     
  13. BillyTaylor

    BillyTaylor Member

    Joined:
    Nov 27, 2016
    Messages:
    102
    Likes Received:
    2
  14. junior.ca

    junior.ca Member

    Joined:
    Jun 1, 2014
    Messages:
    680
    Likes Received:
    13
    obrigado
     
  15. DiVenturas

    DiVenturas Well-Known Member

    Joined:
    Oct 21, 2015
    Messages:
    1,568
    Likes Received:
    25