CC [L] Smash Mouth Feat. Eddie Murphy - I'm A Believer (PARAMOUNTHD-1080i-DD2.0-CELOBRAZiL) [CC]-HDMani

Discussion in 'PARAMOUNT' started by Snorom6, Jun 6, 2016.

  1. Snorom6

    Snorom6 Well-Known Member V . I . P. Uploader

    Joined:
    Dec 17, 2015
    Messages:
    4,247
    Likes Received:
    4,882
    [L] Smash Mouth Feat. Eddie Murphy - I'm A Believer (PARAMOUNTHD-1080i-DD2.0-CELOBRAZiL) [CC]-HDMania


    [​IMG]


    Code:
    General
    ID                             : 1 (0x1)
    Complete name                  : [L] Smash Mouth Feat. Eddie Murphy - I'm A Believer (PARAMOUNTHD-1080i-DD2.0-CELOBRAZiL) [CC]-HDMania.ts
    Format                         : MPEG-TS
    File size                      : 161 MiB
    Duration                       : 3mn 0s
    Overall bit rate mode          : Variable
    Overall bit rate               : 7 471 Kbps
    
    Video
    ID                             : 6960 (0x1B30)
    Menu ID                        : 1 (0x1)
    Format                         : AVC
    Format/Info                    : Advanced Video Codec
    Format profile                 : [email protected]
    Format settings, CABAC         : Yes
    Format settings, ReFrames      : 3 frames
    Codec ID                       : 27
    Duration                       : 3mn 0s
    Bit rate                       : 6 714 Kbps
    Width                          : 1 920 pixels
    Height                         : 1 080 pixels
    Display aspect ratio           : 16:9
    Frame rate                     : 29.970 fps
    Color space                    : YUV
    Chroma subsampling             : 4:2:0
    Bit depth                      : 8 bits
    Scan type                      : MBAFF
    Scan order                     : Top Field First
    Bits/(Pixel*Frame)             : 0.108
    Stream size                    : 144 MiB (90%)
    
    Audio #1
    ID                             : 6961 (0x1B31)
    Menu ID                        : 1 (0x1)
    Format                         : AC-3
    Format/Info                    : Audio Coding 3
    Mode extension                 : CM (complete main)
    Format settings, Endianness    : Big
    Codec ID                       : 6
    Duration                       : 3mn 0s
    Bit rate mode                  : Constant
    Bit rate                       : 192 Kbps
    Channel(s)                     : 2 channels
    Channel positions              : Front: L R
    Sampling rate                  : 48.0 KHz
    Compression mode               : Lossy
    Stream size                    : 4.13 MiB (3%)
    Language                       : English
    
    Audio #2
    ID                             : 6962 (0x1B32)
    Menu ID                        : 1 (0x1)
    Format                         : AC-3
    Format/Info                    : Audio Coding 3
    Mode extension                 : CM (complete main)
    Format settings, Endianness    : Big
    Codec ID                       : 6
    Duration                       : 3mn 0s
    Bit rate mode                  : Constant
    Bit rate                       : 192 Kbps
    Channel(s)                     : 2 channels
    Channel positions              : Front: L R
    Sampling rate                  : 48.0 KHz
    Compression mode               : Lossy
    Stream size                    : 4.13 MiB (3%)
    Language                       : English
    
    Text #1
    ID                             : 6960 (0x1B30)-CC1
    Menu ID                        : 1 (0x1)
    Format                         : EIA-608
    Muxing mode                    : SCTE 128 / DTVCC Transport
    Muxing mode, more info         : Muxed in Video #1
    Duration                       : 3mn 0s
    Bit rate mode                  : Constant
    Stream size                    : 0.00 Byte (0%)
    
    Text #2
    ID                             : 6960 (0x1B30)-CC4
    Menu ID                        : 1 (0x1)
    Format                         : EIA-608
    Muxing mode                    : SCTE 128 / DTVCC Transport
    Muxing mode, more info         : Muxed in Video #1
    Duration                       : 3mn 0s
    Bit rate mode                  : Constant
    Stream size                    : 0.00 Byte (0%)
    
    Text #3
    ID                             : 6960 (0x1B30)-1
    Menu ID                        : 1 (0x1)
    Format                         : EIA-708
    Muxing mode                    : SCTE 128 / DTVCC Transport
    Muxing mode, more info         : Muxed in Video #1
    Duration                       : 3mn 0s
    Bit rate mode                  : Constant
    Stream size                    : 0.00 Byte (0%)
    
    

    Hidden Content:
    You must either reply or click 'Like' to see the hidden information contained here.
    Hidden Content:
    You must either reply or click 'Like' to see the hidden information contained here.
     
    122alex and noriscout like this.
  2. shing000

    shing000 Member

    Joined:
    Mar 13, 2016
    Messages:
    888
    Likes Received:
    24
    gracias
     
    Snorom6 likes this.
  3. tapions

    tapions Active Member

    Joined:
    Aug 30, 2016
    Messages:
    898
    Likes Received:
    70
    gracias