CC [L] Peter Gabriel - In Your Eyes PARAMOUNTHD 1080i HDTV DD2.0 H.264 CELOBRAZiL-HDMania [CC]

Discussion in 'PARAMOUNT' started by CELOBRAZiL, Dec 22, 2016.

  1. CELOBRAZiL

    CELOBRAZiL Well-Known Member Capper V . I . P. Donor

    Joined:
    Oct 2, 2013
    Messages:
    2,796
    Likes Received:
    7,832
    [L] Peter Gabriel - In Your Eyes PARAMOUNTHD 1080i HDTV DD2.0 H.264 CELOBRAZiL-HDMania [CC]

    [​IMG]



    Format : MPEG-TS
    File size : 356 MiB
    Duration : 7mn 18s
    Overall bit rate mode : Variable
    Overall bit rate : 6 818 Kbps

    Video
    ID : 2360 (0x938)
    Menu ID : 658 (0x292)
    Format : AVC
    Format/Info : Advanced Video Codec
    Format profile : [email protected]
    Format settings, CABAC : Yes
    Format settings, ReFrames : 3 frames
    Codec ID : 27
    Duration : 7mn 18s
    Bit rate : 6 093 Kbps
    Width : 1 920 pixels
    Height : 1 080 pixels
    Display aspect ratio : 16:9
    Frame rate : 29.970 fps
    Color space : YUV
    Chroma subsampling : 4:2:0
    Bit depth : 8 bits
    Scan type : MBAFF
    Scan order : Top Field First
    Bits/(Pixel*Frame) : 0.098
    Stream size : 319 MiB (89%)

    Audio #1
    ID : 2324 (0x914)
    Menu ID : 658 (0x292)
    Format : AC-3
    Format/Info : Audio Coding 3
    Mode extension : CM (complete main)
    Format settings, Endianness : Big
    Codec ID : 129
    Duration : 7mn 18s
    Bit rate mode : Constant
    Bit rate : 192 Kbps
    Channel(s) : 2 channels
    Channel positions : Front: L R
    Sampling rate : 48.0 KHz
    Bit depth : 16 bits
    Compression mode : Lossy
    Stream size : 10.0 MiB (3%)
    Language : Portuguese

    Audio #2
    ID : 2325 (0x915)
    Menu ID : 658 (0x292)
    Format : AC-3
    Format/Info : Audio Coding 3
    Mode extension : CM (complete main)
    Format settings, Endianness : Big
    Codec ID : 129
    Duration : 7mn 18s
    Bit rate mode : Constant
    Bit rate : 192 Kbps
    Channel(s) : 2 channels
    Channel positions : Front: L R
    Sampling rate : 48.0 KHz
    Bit depth : 16 bits
    Compression mode : Lossy
    Stream size : 10.0 MiB (3%)
    Language : English

    Text #1
    ID : 2360 (0x938)-CC1
    Menu ID : 658 (0x292)
    Format : EIA-608
    Muxing mode : SCTE 128 / DTVCC Transport
    Muxing mode, more info : Muxed in Video #1
    Duration : 7mn 18s
    Bit rate mode : Constant
    Stream size : 0.00 Byte (0%)

    Text #2
    ID : 2360 (0x938)-1
    Menu ID : 658 (0x292)
    Format : EIA-708
    Muxing mode : SCTE 128 / DTVCC Transport
    Muxing mode, more info : Muxed in Video #1
    Duration : 7mn 18s
    Bit rate mode : Constant
    Stream size : 0.00 Byte (0%)

    Link(s):
    Hidden Content:
    You must either reply or click 'Like' to see the hidden information contained here.
     
    Last edited: Mar 21, 2017
    rhea likes this.
  2. CELOBRAZiL

    CELOBRAZiL Well-Known Member Capper V . I . P. Donor

    Joined:
    Oct 2, 2013
    Messages:
    2,796
    Likes Received:
    7,832
    I love so much this music! :love::love::love: :)
     
  3. NicoleScherzy

    NicoleScherzy Well-Known Member V . I . P.

    Joined:
    May 14, 2015
    Messages:
    952
    Likes Received:
    647
    Do you have his "Don't Give Up" cap?
     
  4. CELOBRAZiL

    CELOBRAZiL Well-Known Member Capper V . I . P. Donor

    Joined:
    Oct 2, 2013
    Messages:
    2,796
    Likes Received:
    7,832
    Sorry @NicoleScherzy but i don't have "Don't Give Up" music video! :(
     
  5. NicoleScherzy

    NicoleScherzy Well-Known Member V . I . P.

    Joined:
    May 14, 2015
    Messages:
    952
    Likes Received:
    647
    No problem. It's a very beautiful song. I would love to have it in HQ :victory:
     
    CELOBRAZiL likes this.
  6. madomanniaco

    madomanniaco Member

    Joined:
    May 18, 2015
    Messages:
    89
    Likes Received:
    1
    wowwwwwwwww