CC [L] Madonna - I'll Remember (PARAMOUNTHD-1080i-DD2.0-CELOBRAZiL) [CC]-HDMania

Discussion in 'PARAMOUNT' started by Snorom6, Jun 6, 2016.

  1. Snorom6

    Snorom6 Well-Known Member Uploader

    Joined:
    Dec 17, 2015
    Messages:
    4,246
    Likes Received:
    3,271
    [L] Madonna - I'll Remember (PARAMOUNTHD-1080i-DD2.0-CELOBRAZiL) [CC]-HDMania


    [​IMG]


    Code:
    General
    ID                             : 1 (0x1)
    Complete name                  : [L] Madonna - I'll Remember (PARAMOUNTHD-1080i-DD2.0-CELOBRAZiL) [CC]-HDMania.ts
    Format                         : MPEG-TS
    File size                      : 195 MiB
    Duration                       : 4mn 4s
    Overall bit rate mode          : Variable
    Overall bit rate               : 6 709 Kbps
    
    Video
    ID                             : 5376 (0x1500)
    Menu ID                        : 658 (0x292)
    Format                         : AVC
    Format/Info                    : Advanced Video Codec
    Format profile                 : [email protected]
    Format settings, CABAC         : Yes
    Format settings, ReFrames      : 3 frames
    Codec ID                       : 27
    Duration                       : 4mn 4s
    Bit rate                       : 5 990 Kbps
    Width                          : 1 920 pixels
    Height                         : 1 080 pixels
    Display aspect ratio           : 16:9
    Frame rate                     : 29.970 fps
    Color space                    : YUV
    Chroma subsampling             : 4:2:0
    Bit depth                      : 8 bits
    Scan type                      : MBAFF
    Scan order                     : Top Field First
    Bits/(Pixel*Frame)             : 0.096
    Stream size                    : 174 MiB (89%)
    
    Audio #1
    ID                             : 5377 (0x1501)
    Menu ID                        : 658 (0x292)
    Format                         : AC-3
    Format/Info                    : Audio Coding 3
    Mode extension                 : CM (complete main)
    Format settings, Endianness    : Big
    Codec ID                       : 129
    Duration                       : 4mn 4s
    Bit rate mode                  : Constant
    Bit rate                       : 192 Kbps
    Channel(s)                     : 2 channels
    Channel positions              : Front: L R
    Sampling rate                  : 48.0 KHz
    Compression mode               : Lossy
    Stream size                    : 5.59 MiB (3%)
    Language                       : Portuguese
    
    Audio #2
    ID                             : 5378 (0x1502)
    Menu ID                        : 658 (0x292)
    Format                         : AC-3
    Format/Info                    : Audio Coding 3
    Mode extension                 : CM (complete main)
    Format settings, Endianness    : Big
    Codec ID                       : 129
    Duration                       : 4mn 4s
    Bit rate mode                  : Constant
    Bit rate                       : 192 Kbps
    Channel(s)                     : 2 channels
    Channel positions              : Front: L R
    Sampling rate                  : 48.0 KHz
    Compression mode               : Lossy
    Stream size                    : 5.59 MiB (3%)
    Language                       : English
    
    Text #1
    ID                             : 5376 (0x1500)-CC1
    Menu ID                        : 658 (0x292)
    Format                         : EIA-608
    Muxing mode                    : SCTE 128 / DTVCC Transport
    Muxing mode, more info         : Muxed in Video #1
    Duration                       : 4mn 4s
    Bit rate mode                  : Constant
    Stream size                    : 0.00 Byte (0%)
    
    Text #2
    ID                             : 5376 (0x1500)-CC4
    Menu ID                        : 658 (0x292)
    Format                         : EIA-608
    Muxing mode                    : SCTE 128 / DTVCC Transport
    Muxing mode, more info         : Muxed in Video #1
    Duration                       : 4mn 4s
    Bit rate mode                  : Constant
    Stream size                    : 0.00 Byte (0%)
    
    Text #3
    ID                             : 5376 (0x1500)-1
    Menu ID                        : 658 (0x292)
    Format                         : EIA-708
    Muxing mode                    : SCTE 128 / DTVCC Transport
    Muxing mode, more info         : Muxed in Video #1
    Duration                       : 4mn 4s
    Bit rate mode                  : Constant
    Stream size                    : 0.00 Byte (0%)
    
    

    Hidden Content:
    You must either reply or click 'Like' to see the hidden information contained here.
    Hidden Content:
    You must either reply or click 'Like' to see the hidden information contained here.
     
    gb.bruck and tequest like this.
  2. Osh Şarif

    Osh Şarif Well-Known Member

    Joined:
    Dec 29, 2013
    Messages:
    338
    Likes Received:
    640
    thanks
     
    Snorom6 likes this.
  3. quake2

    quake2 Active Member

    Joined:
    Oct 11, 2014
    Messages:
    769
    Likes Received:
    30
    thanks
     
    Snorom6 likes this.
  4. tapions

    tapions Active Member

    Joined:
    Aug 30, 2016
    Messages:
    749
    Likes Received:
    47
    gracias
     
  5. ricards51

    ricards51 Member

    Joined:
    Oct 10, 2016
    Messages:
    94
    Likes Received:
    1
    very special clip
     
  6. Leemond

    Leemond Member

    Joined:
    Jun 2, 2016
    Messages:
    60
    Likes Received:
    0
    Thank you
     
  7. Naner77

    Naner77 Member

    Joined:
    Aug 9, 2016
    Messages:
    167
    Likes Received:
    4
    obrigado
     
  8. gb.bruck

    gb.bruck Member

    Joined:
    Jul 7, 2014
    Messages:
    85
    Likes Received:
    12
    thanks