CC [L] Limp Bizkit - Behind Blue Eyes (PARAMOUNTHD-1080i-DD2.0-CELOBRAZiL) [CC]-HDMania

Discussion in 'PARAMOUNT' started by Snorom6, Jun 6, 2016.

  1. Snorom6

    Snorom6 Well-Known Member Uploader

    Joined:
    Dec 17, 2015
    Messages:
    4,246
    Likes Received:
    3,271
    [L] Limp Bizkit - Behind Blue Eyes (PARAMOUNTHD-1080i-DD2.0-CELOBRAZiL) [CC]-HDMania


    [​IMG]


    Code:
    General
    ID                             : 1 (0x1)
    Complete name                  : [L] Limp Bizkit - Behind Blue Eyes (PARAMOUNTHD-1080i-DD2.0-CELOBRAZiL) [CC]-HDMania.ts
    Format                         : MPEG-TS
    File size                      : 177 MiB
    Duration                       : 4mn 30s
    Overall bit rate mode          : Variable
    Overall bit rate               : 5 480 Kbps
    
    Video
    ID                             : 6960 (0x1B30)
    Menu ID                        : 658 (0x292)
    Format                         : AVC
    Format/Info                    : Advanced Video Codec
    Format profile                 : [email protected]
    Format settings, CABAC         : Yes
    Format settings, ReFrames      : 3 frames
    Codec ID                       : 27
    Duration                       : 4mn 30s
    Bit rate                       : 4 821 Kbps
    Width                          : 1 920 pixels
    Height                         : 1 080 pixels
    Display aspect ratio           : 16:9
    Frame rate                     : 29.970 fps
    Color space                    : YUV
    Chroma subsampling             : 4:2:0
    Bit depth                      : 8 bits
    Scan type                      : MBAFF
    Scan order                     : Top Field First
    Bits/(Pixel*Frame)             : 0.078
    Stream size                    : 155 MiB (88%)
    
    Audio #1
    ID                             : 6961 (0x1B31)
    Menu ID                        : 658 (0x292)
    Format                         : AC-3
    Format/Info                    : Audio Coding 3
    Mode extension                 : CM (complete main)
    Format settings, Endianness    : Big
    Codec ID                       : 129
    Duration                       : 4mn 30s
    Bit rate mode                  : Constant
    Bit rate                       : 192 Kbps
    Channel(s)                     : 2 channels
    Channel positions              : Front: L R
    Sampling rate                  : 48.0 KHz
    Compression mode               : Lossy
    Stream size                    : 6.19 MiB (4%)
    Language                       : Portuguese
    
    Audio #2
    ID                             : 6962 (0x1B32)
    Menu ID                        : 658 (0x292)
    Format                         : AC-3
    Format/Info                    : Audio Coding 3
    Mode extension                 : CM (complete main)
    Format settings, Endianness    : Big
    Codec ID                       : 129
    Duration                       : 4mn 30s
    Bit rate mode                  : Constant
    Bit rate                       : 192 Kbps
    Channel(s)                     : 2 channels
    Channel positions              : Front: L R
    Sampling rate                  : 48.0 KHz
    Compression mode               : Lossy
    Stream size                    : 6.19 MiB (4%)
    Language                       : English
    
    Text #1
    ID                             : 6960 (0x1B30)-CC1
    Menu ID                        : 658 (0x292)
    Format                         : EIA-608
    Muxing mode                    : SCTE 128 / DTVCC Transport
    Muxing mode, more info         : Muxed in Video #1
    Duration                       : 4mn 30s
    Bit rate mode                  : Constant
    Stream size                    : 0.00 Byte (0%)
    
    Text #2
    ID                             : 6960 (0x1B30)-1
    Menu ID                        : 658 (0x292)
    Format                         : EIA-708
    Muxing mode                    : SCTE 128 / DTVCC Transport
    Muxing mode, more info         : Muxed in Video #1
    Duration                       : 4mn 30s
    Bit rate mode                  : Constant
    Stream size                    : 0.00 Byte (0%)
    
    

    Hidden Content:
    You must either reply or click 'Like' to see the hidden information contained here.
    Hidden Content:
    You must either reply or click 'Like' to see the hidden information contained here.
     
  2. lpzion

    lpzion Member

    Joined:
    May 10, 2014
    Messages:
    112
    Likes Received:
    17
    thank you
     
    Snorom6 likes this.
  3. quake2

    quake2 Active Member

    Joined:
    Oct 11, 2014
    Messages:
    769
    Likes Received:
    30
    thanks
     
    Snorom6 likes this.
  4. janito33

    janito33 Member

    Joined:
    Dec 10, 2014
    Messages:
    134
    Likes Received:
    1
    gracias por el video
     
  5. tapions

    tapions Active Member

    Joined:
    Aug 30, 2016
    Messages:
    749
    Likes Received:
    47
    gracias
     
  6. danicoteca

    danicoteca Member

    Joined:
    Sep 10, 2016
    Messages:
    159
    Likes Received:
    17
  7. leryck

    leryck Member

    Joined:
    Sep 21, 2016
    Messages:
    44
    Likes Received:
    1
    gracias