CC [L] Coldplay Feat. Beyoncé - Hymn For The Weekend (VH1HD-1080i-DD2.0-CELOBRAZiL) [CC]-HDMania

Discussion in 'VH1 HD' started by Snorom6, Jun 6, 2016.

  1. Snorom6

    Snorom6 Well-Known Member V . I . P. Uploader

    Joined:
    Dec 17, 2015
    Messages:
    4,247
    Likes Received:
    4,873
    [L] Coldplay Feat. Beyoncé - Hymn For The Weekend (VH1HD-1080i-DD2.0-CELOBRAZiL) [CC]-HDMania


    [​IMG]


    Code:
    General
    ID                             : 1 (0x1)
    Complete name                  : [L] Coldplay Feat. Beyoncé - Hymn For The Weekend (VH1HD-1080i-DD2.0-CELOBRAZiL) [CC]-HDMania.ts
    Format                         : MPEG-TS
    File size                      : 198 MiB
    Duration                       : 4mn 18s
    Overall bit rate mode          : Variable
    Overall bit rate               : 6 414 Kbps
    
    Video
    ID                             : 5408 (0x1520)
    Menu ID                        : 625 (0x271)
    Format                         : AVC
    Format/Info                    : Advanced Video Codec
    Format profile                 : [email protected]
    Format settings, CABAC         : Yes
    Format settings, ReFrames      : 3 frames
    Codec ID                       : 27
    Duration                       : 4mn 18s
    Bit rate                       : 5 709 Kbps
    Width                          : 1 920 pixels
    Height                         : 1 080 pixels
    Display aspect ratio           : 16:9
    Frame rate                     : 29.970 fps
    Color space                    : YUV
    Chroma subsampling             : 4:2:0
    Bit depth                      : 8 bits
    Scan type                      : MBAFF
    Scan order                     : Top Field First
    Bits/(Pixel*Frame)             : 0.092
    Stream size                    : 176 MiB (89%)
    
    Audio
    ID                             : 5409 (0x1521)
    Menu ID                        : 625 (0x271)
    Format                         : AC-3
    Format/Info                    : Audio Coding 3
    Mode extension                 : CM (complete main)
    Format settings, Endianness    : Big
    Codec ID                       : 129
    Duration                       : 4mn 18s
    Bit rate mode                  : Constant
    Bit rate                       : 384 Kbps
    Channel(s)                     : 2 channels
    Channel positions              : Front: L R
    Sampling rate                  : 48.0 KHz
    Compression mode               : Lossy
    Stream size                    : 11.8 MiB (6%)
    Language                       : English
    
    Text #1
    ID                             : 5408 (0x1520)-CC1
    Menu ID                        : 625 (0x271)
    Format                         : EIA-608
    Muxing mode                    : SCTE 128 / DTVCC Transport
    Muxing mode, more info         : Muxed in Video #1
    Duration                       : 4mn 18s
    Bit rate mode                  : Constant
    Stream size                    : 0.00 Byte (0%)
    
    Text #2
    ID                             : 5408 (0x1520)-1
    Menu ID                        : 625 (0x271)
    Format                         : EIA-708
    Muxing mode                    : SCTE 128 / DTVCC Transport
    Muxing mode, more info         : Muxed in Video #1
    Duration                       : 4mn 18s
    Bit rate mode                  : Constant
    Stream size                    : 0.00 Byte (0%)
    
    

    Hidden Content:
    You must either reply or click 'Like' to see the hidden information contained here.
    Hidden Content:
    You must either reply or click 'Like' to see the hidden information contained here.
     
  2. Loading...


  3. rashka

    rashka Member

    Joined:
    Apr 8, 2014
    Messages:
    226
    Likes Received:
    11
    thanks
     
  4. Jrec

    Jrec Active Member

    Joined:
    May 11, 2016
    Messages:
    652
    Likes Received:
    32
    Thanks
     
  5. e132961

    e132961 Member

    Joined:
    Jan 6, 2017
    Messages:
    114
    Likes Received:
    1
    thanks.
     
  6. RE4PER

    RE4PER Member

    Joined:
    Dec 23, 2016
    Messages:
    123
    Likes Received:
    0
    Thanks
     
  7. GHN

    GHN Member

    Joined:
    Oct 27, 2014
    Messages:
    481
    Likes Received:
    10
    Thanks
     
  8. Frogman12

    Frogman12 Member

    Joined:
    Mar 28, 2017
    Messages:
    124
    Likes Received:
    9