CC [L] Bruce Springsteen - Streets Of Philadelphia (PARAMOUNTHD-1080i-DD2.0-CELOBRAZiL) [CC]-HDMania

Discussion in 'PARAMOUNT' started by Snorom6, Jun 6, 2016.

  1. Snorom6

    Snorom6 Well-Known Member Uploader

    Joined:
    Dec 17, 2015
    Messages:
    4,242
    Likes Received:
    4,591
    [L] Bruce Springsteen - Streets Of Philadelphia (PARAMOUNTHD-1080i-DD2.0-CELOBRAZiL) [CC]-HDMania


    [​IMG]


    Code:
    General
    ID                             : 1 (0x1)
    Complete name                  : [L] Bruce Springsteen - Streets Of Philadelphia (PARAMOUNTHD-1080i-DD2.0-CELOBRAZiL) [CC]-HDMania.ts
    Format                         : MPEG-TS
    File size                      : 166 MiB
    Duration                       : 2mn 56s
    Overall bit rate mode          : Variable
    Overall bit rate               : 7 856 Kbps
    Law rating                     : N/A
    
    Video
    ID                             : 4624 (0x1210)
    Menu ID                        : 658 (0x292)
    Format                         : AVC
    Format/Info                    : Advanced Video Codec
    Format profile                 : [email protected]
    Format settings, CABAC         : Yes
    Format settings, ReFrames      : 3 frames
    Codec ID                       : 27
    Duration                       : 2mn 56s
    Bit rate                       : 7 080 Kbps
    Width                          : 1 920 pixels
    Height                         : 1 080 pixels
    Display aspect ratio           : 16:9
    Frame rate                     : 29.970 fps
    Color space                    : YUV
    Chroma subsampling             : 4:2:0
    Bit depth                      : 8 bits
    Scan type                      : MBAFF
    Scan order                     : Top Field First
    Bits/(Pixel*Frame)             : 0.114
    Stream size                    : 149 MiB (90%)
    
    Audio #1
    ID                             : 4625 (0x1211)
    Menu ID                        : 658 (0x292)
    Format                         : AC-3
    Format/Info                    : Audio Coding 3
    Mode extension                 : CM (complete main)
    Format settings, Endianness    : Big
    Codec ID                       : 129
    Duration                       : 2mn 56s
    Bit rate mode                  : Constant
    Bit rate                       : 192 Kbps
    Channel(s)                     : 2 channels
    Channel positions              : Front: L R
    Sampling rate                  : 48.0 KHz
    Compression mode               : Lossy
    Stream size                    : 4.05 MiB (2%)
    Language                       : Portuguese
    
    Audio #2
    ID                             : 4626 (0x1212)
    Menu ID                        : 658 (0x292)
    Format                         : AC-3
    Format/Info                    : Audio Coding 3
    Mode extension                 : CM (complete main)
    Format settings, Endianness    : Big
    Codec ID                       : 129
    Duration                       : 2mn 56s
    Bit rate mode                  : Constant
    Bit rate                       : 192 Kbps
    Channel(s)                     : 2 channels
    Channel positions              : Front: L R
    Sampling rate                  : 48.0 KHz
    Compression mode               : Lossy
    Stream size                    : 4.05 MiB (2%)
    Language                       : English
    
    Text #1
    ID                             : 4624 (0x1210)-CC1
    Menu ID                        : 658 (0x292)
    Format                         : EIA-608
    Muxing mode                    : SCTE 128 / DTVCC Transport
    Muxing mode, more info         : Muxed in Video #1
    Duration                       : 2mn 56s
    Bit rate mode                  : Constant
    Stream size                    : 0.00 Byte (0%)
    
    Text #2
    ID                             : 4624 (0x1210)-1
    Menu ID                        : 658 (0x292)
    Format                         : EIA-708
    Muxing mode                    : SCTE 128 / DTVCC Transport
    Muxing mode, more info         : Muxed in Video #1
    Duration                       : 2mn 56s
    Bit rate mode                  : Constant
    Stream size                    : 0.00 Byte (0%)
    
    

    Hidden Content:
    You must either reply or click 'Like' to see the hidden information contained here.
    Hidden Content:
    You must either reply or click 'Like' to see the hidden information contained here.
     
    rvden, couillerot, tequest and 2 others like this.
  2. Zatimi

    Zatimi Active Member

    Joined:
    Aug 27, 2014
    Messages:
    700
    Likes Received:
    118
    thanks a lot
     
    tequest likes this.
  3. tapions

    tapions Active Member

    Joined:
    Aug 30, 2016
    Messages:
    870
    Likes Received:
    65
    gracias
     
  4. CristianMatias

    CristianMatias HIGH DEFINITION

    Joined:
    Sep 17, 2016
    Messages:
    754
    Likes Received:
    20
  5. danicoteca

    danicoteca Member

    Joined:
    Sep 10, 2016
    Messages:
    160
    Likes Received:
    17
  6. J_Pablo

    J_Pablo Active Member

    Joined:
    Nov 27, 2013
    Messages:
    502
    Likes Received:
    103
    Thank you so much! the quality of this channell Is amazing
     
  7. jmvtech

    jmvtech Member

    Joined:
    Jul 26, 2014
    Messages:
    58
    Likes Received:
    7
    Thanks