PACK Kylie Minogue - x6 Videos (MTVNHD.1080i.DD2.0)

Discussion in 'MTVNHD' started by Crusha, Feb 4, 2016.

  1. Crusha

    Crusha Well-Known Member Capper V . I . P.

    Joined:
    Oct 15, 2014
    Messages:
    2,358
    Likes Received:
    2,650
    [​IMG]
    Mediainfo
    General
    ID : 6 (0x6)
    Complete name : Kylie Minogue - Spinning Around (Live) (MTVNHD.1080I.DD2.0).ts
    Format : MPEG-TS
    File size : 286 MiB
    Duration : 3mn 17s
    Overall bit rate mode : Variable
    Overall bit rate : 12.1 Mbps

    Video
    ID : 326 (0x146)
    Menu ID : 1 (0x1)
    Format : AVC
    Format/Info : Advanced Video Codec
    Format profile : [email protected]
    Format settings, CABAC : Yes
    Format settings, ReFrames : 4 frames
    Codec ID : 27
    Duration : 3mn 17s
    Bit rate : 11.2 Mbps
    Width : 1 920 pixels
    Height : 1 080 pixels
    Display aspect ratio : 16:9
    Frame rate : 25.000 fps
    Color space : YUV
    Chroma subsampling : 4:2:0
    Bit depth : 8 bits
    Scan type : Interlaced
    Scan order : Top Field First
    Bits/(Pixel*Frame) : 0.215
    Stream size : 263 MiB (92%)
    Language : English
    Color range : Limited
    Color primaries : BT.709
    Transfer characteristics : BT.709
    Matrix coefficients : BT.709

    Audio
    ID : 406 (0x196)
    Menu ID : 1 (0x1)
    Format : AC-3
    Format/Info : Audio Coding 3
    Mode extension : CM (complete main)
    Format settings, Endianness : Big
    Codec ID : 129
    Duration : 3mn 17s
    Bit rate mode : Constant
    Bit rate : 384 Kbps
    Channel(s) : 2 channels
    Channel positions : Front: L R
    Sampling rate : 48.0 KHz
    Bit depth : 16 bits
    Compression mode : Lossy
    Delay relative to video : 103ms
    Stream size : 9.05 MiB (3%)
    Language : English


    [​IMG]
    Mediainfo
    General
    ID : 6 (0x6)
    Complete name : Kylie Minogue - Somewhere Over The Rainbow (Live) (MTVNHD.1080I.DD2.0).ts
    Format : MPEG-TS
    File size : 114 MiB
    Duration : 2mn 53s
    Overall bit rate mode : Variable
    Overall bit rate : 5 505 Kbps

    Video
    ID : 326 (0x146)
    Menu ID : 1 (0x1)
    Format : AVC
    Format/Info : Advanced Video Codec
    Format profile : [email protected]
    Format settings, CABAC : Yes
    Format settings, ReFrames : 4 frames
    Format settings, GOP : M=4, N=32
    Codec ID : 27
    Duration : 2mn 53s
    Bit rate : 4 845 Kbps
    Width : 1 920 pixels
    Height : 1 080 pixels
    Display aspect ratio : 16:9
    Frame rate : 25.000 fps
    Standard : Component
    Color space : YUV
    Chroma subsampling : 4:2:0
    Bit depth : 8 bits
    Scan type : Interlaced
    Scan order : Top Field First
    Bits/(Pixel*Frame) : 0.093
    Stream size : 100 MiB (88%)
    Language : English
    Color range : Limited
    Color primaries : BT.709
    Transfer characteristics : BT.709
    Matrix coefficients : BT.709

    Audio
    ID : 406 (0x196)
    Menu ID : 1 (0x1)
    Format : AC-3
    Format/Info : Audio Coding 3
    Mode extension : CM (complete main)
    Format settings, Endianness : Big
    Codec ID : 129
    Duration : 2mn 53s
    Bit rate mode : Constant
    Bit rate : 384 Kbps
    Channel(s) : 2 channels
    Channel positions : Front: L R
    Sampling rate : 48.0 KHz
    Bit depth : 16 bits
    Compression mode : Lossy
    Delay relative to video : 111ms
    Stream size : 7.94 MiB (7%)
    Language : English

    [​IMG]
    Mediainfo
    General
    ID : 6 (0x6)
    Complete name : Kylie Minogue - The One (MTVNHD.1080I.DD2.0).ts
    Format : MPEG-TS
    File size : 176 MiB
    Duration : 3mn 38s
    Overall bit rate mode : Variable
    Overall bit rate : 6 742 Kbps

    Video
    ID : 326 (0x146)
    Menu ID : 1 (0x1)
    Format : AVC
    Format/Info : Advanced Video Codec
    Format profile : [email protected]
    Format settings, CABAC : Yes
    Format settings, ReFrames : 4 frames
    Codec ID : 27
    Duration : 3mn 38s
    Bit rate : 6 021 Kbps
    Width : 1 920 pixels
    Height : 1 080 pixels
    Display aspect ratio : 16:9
    Frame rate : 25.000 fps
    Color space : YUV
    Chroma subsampling : 4:2:0
    Bit depth : 8 bits
    Scan type : Interlaced
    Scan order : Top Field First
    Bits/(Pixel*Frame) : 0.116
    Stream size : 157 MiB (89%)
    Language : English
    Color range : Limited
    Color primaries : BT.709
    Transfer characteristics : BT.709
    Matrix coefficients : BT.709

    Audio
    ID : 406 (0x196)
    Menu ID : 1 (0x1)
    Format : AC-3
    Format/Info : Audio Coding 3
    Mode extension : CM (complete main)
    Format settings, Endianness : Big
    Codec ID : 129
    Duration : 3mn 38s
    Bit rate mode : Constant
    Bit rate : 384 Kbps
    Channel(s) : 2 channels
    Channel positions : Front: L R
    Sampling rate : 48.0 KHz
    Bit depth : 16 bits
    Compression mode : Lossy
    Delay relative to video : 41ms
    Stream size : 10.00 MiB (6%)
    Language : English

    [​IMG]

    Mediainfo
    General
    ID : 6 (0x6)
    Complete name : Kylie Minogue - 2 Hearts (MTVNHD.1080I.DD2.0).ts
    Format : MPEG-TS
    File size : 154 MiB
    Duration : 2mn 50s
    Overall bit rate mode : Variable
    Overall bit rate : 7 557 Kbps

    Video
    ID : 326 (0x146)
    Menu ID : 1 (0x1)
    Format : AVC
    Format/Info : Advanced Video Codec
    Format profile : [email protected]
    Format settings, CABAC : Yes
    Format settings, ReFrames : 4 frames
    Format settings, GOP : M=4, N=32
    Codec ID : 27
    Duration : 2mn 50s
    Bit rate : 6 796 Kbps
    Width : 1 920 pixels
    Height : 1 080 pixels
    Display aspect ratio : 16:9
    Frame rate : 25.000 fps
    Color space : YUV
    Chroma subsampling : 4:2:0
    Bit depth : 8 bits
    Scan type : Interlaced
    Scan order : Top Field First
    Bits/(Pixel*Frame) : 0.131
    Stream size : 138 MiB (90%)
    Language : English
    Color range : Limited
    Color primaries : BT.709
    Transfer characteristics : BT.709
    Matrix coefficients : BT.709

    Audio
    ID : 406 (0x196)
    Menu ID : 1 (0x1)
    Format : AC-3
    Format/Info : Audio Coding 3
    Mode extension : CM (complete main)
    Format settings, Endianness : Big
    Codec ID : 129
    Duration : 2mn 50s
    Bit rate mode : Constant
    Bit rate : 384 Kbps
    Channel(s) : 2 channels
    Channel positions : Front: L R
    Sampling rate : 48.0 KHz
    Bit depth : 16 bits
    Compression mode : Lossy
    Delay relative to video : 56ms
    Stream size : 7.80 MiB (5%)
    Language : English

    [​IMG]
    Mediainfo
    General
    ID : 6 (0x6)
    Complete name : Kylie Minogue - All The Lovers (MTVNHD.1080I.DD2.0).ts
    Format : MPEG-TS
    File size : 157 MiB
    Duration : 3mn 18s
    Overall bit rate mode : Variable
    Overall bit rate : 6 650 Kbps

    Video
    ID : 326 (0x146)
    Menu ID : 1 (0x1)
    Format : AVC
    Format/Info : Advanced Video Codec
    Format profile : [email protected]
    Format settings, CABAC : Yes
    Format settings, ReFrames : 4 frames
    Codec ID : 27
    Duration : 3mn 17s
    Bit rate : 5 933 Kbps
    Width : 1 920 pixels
    Height : 1 080 pixels
    Display aspect ratio : 16:9
    Frame rate : 25.000 fps
    Standard : Component
    Color space : YUV
    Chroma subsampling : 4:2:0
    Bit depth : 8 bits
    Scan type : Interlaced
    Scan order : Top Field First
    Bits/(Pixel*Frame) : 0.114
    Stream size : 140 MiB (89%)
    Language : English
    Color range : Limited
    Color primaries : BT.709
    Transfer characteristics : BT.709
    Matrix coefficients : BT.709

    Audio
    ID : 406 (0x196)
    Menu ID : 1 (0x1)
    Format : AC-3
    Format/Info : Audio Coding 3
    Mode extension : CM (complete main)
    Format settings, Endianness : Big
    Codec ID : 129
    Duration : 3mn 17s
    Bit rate mode : Constant
    Bit rate : 384 Kbps
    Channel(s) : 2 channels
    Channel positions : Front: L R
    Sampling rate : 48.0 KHz
    Bit depth : 16 bits
    Compression mode : Lossy
    Delay relative to video : 101ms
    Stream size : 9.06 MiB (6%)
    Language : English

    [​IMG]
    Mediainfo
    General
    ID : 6 (0x6)
    Complete name : Kylie Minogue - Get Outta My Way (MTVNHD.1080I.DD2.0).ts
    Format : MPEG-TS
    File size : 223 MiB
    Duration : 3mn 39s
    Overall bit rate mode : Variable
    Overall bit rate : 8 512 Kbps

    Video
    ID : 326 (0x146)
    Menu ID : 1 (0x1)
    Format : AVC
    Format/Info : Advanced Video Codec
    Format profile : [email protected]
    Format settings, CABAC : Yes
    Format settings, ReFrames : 4 frames
    Format settings, GOP : M=4, N=32
    Codec ID : 27
    Duration : 3mn 39s
    Bit rate : 7 704 Kbps
    Width : 1 920 pixels
    Height : 1 080 pixels
    Display aspect ratio : 16:9
    Frame rate : 25.000 fps
    Standard : Component
    Color space : YUV
    Chroma subsampling : 4:2:0
    Bit depth : 8 bits
    Scan type : Interlaced
    Scan order : Top Field First
    Bits/(Pixel*Frame) : 0.149
    Stream size : 201 MiB (90%)
    Language : English
    Color range : Limited
    Color primaries : BT.709
    Transfer characteristics : BT.709
    Matrix coefficients : BT.709

    Audio
    ID : 406 (0x196)
    Menu ID : 1 (0x1)
    Format : AC-3
    Format/Info : Audio Coding 3
    Mode extension : CM (complete main)
    Format settings, Endianness : Big
    Codec ID : 129
    Duration : 3mn 39s
    Bit rate mode : Constant
    Bit rate : 384 Kbps
    Channel(s) : 2 channels
    Channel positions : Front: L R
    Sampling rate : 48.0 KHz
    Bit depth : 16 bits
    Compression mode : Lossy
    Delay relative to video : 47ms
    Stream size : 10.0 MiB (5%)
    Language : English
    Hidden Content:
    You must reply before you can see the hidden data contained here.
    Password:
    crusha

     
  2. Loading...


  3. adam dark

    adam dark Video Music Lover <3 V . I . P.

    Joined:
    Dec 5, 2013
    Messages:
    2,610
    Likes Received:
    4,931
  4. benja

    benja Well-Known Member

    Joined:
    Jan 8, 2014
    Messages:
    1,317
    Likes Received:
    83
    Thank you so much!!!
     
  5. zuiderheide

    zuiderheide Well-Known Member

    Joined:
    Nov 18, 2013
    Messages:
    2,072
    Likes Received:
    62
    thank you
     
  6. biyurugit

    biyurugit New Member

    Joined:
    Feb 18, 2016
    Messages:
    15
    Likes Received:
    0
    10x alot
     
  7. maurohachen

    maurohachen Active Member

    Joined:
    Feb 24, 2015
    Messages:
    469
    Likes Received:
    25
    you motr
     
  8. maurohachen

    maurohachen Active Member

    Joined:
    Feb 24, 2015
    Messages:
    469
    Likes Received:
    25
  9. hafez

    hafez Member

    Joined:
    Dec 18, 2014
    Messages:
    185
    Likes Received:
    14
    thank you
     
  10. TrendMusic

    TrendMusic Well-Known Member

    Joined:
    Oct 7, 2013
    Messages:
    1,413
    Likes Received:
    104
  11. rhea

    rhea Well-Known Member

    Joined:
    Jan 6, 2014
    Messages:
    6,956
    Likes Received:
    755
    thank you so much! :)
     
  12. sideshow_bob

    sideshow_bob Well-Known Member

    Joined:
    Dec 20, 2013
    Messages:
    3,026
    Likes Received:
    189
    super thanks
     
  13. diego_123

    diego_123 Member

    Joined:
    Dec 15, 2013
    Messages:
    562
    Likes Received:
    11
    Thank you so much.
     
  14. giddeon85

    giddeon85 Member

    Joined:
    Aug 5, 2016
    Messages:
    260
    Likes Received:
    9
    thank you!
     
  15. tapions

    tapions Active Member

    Joined:
    Aug 30, 2016
    Messages:
    909
    Likes Received:
    77
    gracias
     
  16. gacb01

    gacb01 Member

    Joined:
    Sep 26, 2016
    Messages:
    157
    Likes Received:
    19
    THANK YOU
     
  17. multimediafm

    multimediafm Well-Known Member Donor

    Joined:
    Mar 27, 2014
    Messages:
    10,639
    Likes Received:
    633
    Thanks :)
    Kylie Minogue - x6 Videos (MTVNHD.1080i.DD2.0)
     
  18. revilo18

    revilo18 Well-Known Member

    Joined:
    May 26, 2016
    Messages:
    1,875
    Likes Received:
    85
    THANKKK
     
  19. lastxdance

    lastxdance Member

    Joined:
    Dec 13, 2016
    Messages:
    398
    Likes Received:
    22
    Thank you <3
     
  20. Wagnerr

    Wagnerr Member

    Joined:
    Sep 21, 2014
    Messages:
    135
    Likes Received:
    0
    thank you
     
  21. robertsnake

    robertsnake Member

    Joined:
    Dec 24, 2016
    Messages:
    59
    Likes Received:
    2
    Thank you soooo much.