Kylie Minogue - Timebomb (LPCM-Master-ProRes-1080p)

Discussion in 'PRORES' started by DETOX, Aug 19, 2015.

  1. DETOX

    DETOX K-POP fan ♡ VIXX▾T-ARA▾B.A.P▾17▾WANNA ONE▾BTS... V . I . P. Uploader

    Joined:
    Feb 20, 2014
    Messages:
    3,668
    Likes Received:
    26,559
    [​IMG]
    Code:
    General
    Complete name                            : Kylie Minogue - Timebomb (Master ProRes 1080p).mov
    Format                                   : MPEG-4
    Format profile                           : QuickTime
    Codec ID                                 : qt  
    File size                                : 4.63 GiB
    Duration                                 : 3mn 36s
    Overall bit rate mode                    : Variable
    Overall bit rate                         : 184 Mbps
    Encoded date                             : UTC 2012-05-21 13:48:30
    Tagged date                              : UTC 2012-05-21 17:50:28
    Writing library                          : Apple QuickTime 7.7.2
    com.apple.proapps.logNote                : Untitled 01
    com.apple.proapps.reel                   : 001
    com.apple.proapps.scene                  : Scene 01
    com.apple.proapps.shot                   : 01
    com.apple.proapps.angle                  : 01
    com.apple.quicktime.player.movie.audio.m : (Binary)
    
    Video
    ID                                       : 1
    Format                                   : ProRes
    Format version                           : Version 0
    Format profile                           : 422 HQ
    Codec ID                                 : apch
    Duration                                 : 3mn 36s
    Source duration                          : 4mn 5s
    Bit rate mode                            : Variable
    Bit rate                                 : 163 Mbps
    Width                                    : 1 920 pixels
    Height                                   : 1 080 pixels
    Display aspect ratio                     : 16:9
    Frame rate mode                          : Constant
    Frame rate                               : 25.000 fps
    Color space                              : YUV
    Chroma subsampling                       : 4:2:2
    Scan type                                : Progressive
    Bits/(Pixel*Frame)                       : 3.147
    Stream size                              : 4.10 GiB (89%)
    Source stream size                       : 4.59 GiB (99%)
    Writing library                          : Apple
    Language                                 : English
    Encoded date                             : UTC 2012-05-21 13:48:30
    Tagged date                              : UTC 2012-05-21 17:50:28
    Matrix coefficients                      : BT.709
    
    Audio
    ID                                       : 2
    Format                                   : PCM
    Format settings, Endianness              : Little
    Format settings, Sign                    : Signed
    Codec ID                                 : sowt
    Duration                                 : 3mn 36s
    Source duration                          : 4mn 5s
    Bit rate mode                            : Constant
    Bit rate                                 : 1 536 Kbps
    Channel(s)                               : 2 channels
    Channel positions                        : Front: L R
    Sampling rate                            : 48.0 KHz
    Bit depth                                : 16 bits
    Stream size                              : 39.6 MiB (1%)
    Source stream size                       : 45.0 MiB (1%)
    Language                                 : English
    Encoded date                             : UTC 2012-05-21 13:48:30
    Tagged date                              : UTC 2012-05-21 17:50:28
    
    Other
    ID                                       : 3
    Type                                     : Time code
    Format                                   : QuickTime TC
    Duration                                 : 3mn 36s
    Time code of first frame                 : 09:59:30:00
    Time code, striped                       : Yes
    Title                                    : time
    Language                                 : English
    Encoded date                             : UTC 2012-05-21 13:48:30
    Tagged date                              : UTC 2012-05-21 17:50:28

    Hidden Content:
    You must reply before you can see the hidden data contained here.
     
    batang, cranman, Inna and 7 others like this.
  2. Loading...


  3. multimediafm

    multimediafm Well-Known Member Donor

    Joined:
    Mar 27, 2014
    Messages:
    10,636
    Likes Received:
    631
    Thanks :)
    Kylie Minogue - Timebomb (LPCM-Master-ProRes-1080p)
     
  4. mitsuki1993

    mitsuki1993 New Member

    Joined:
    Jan 19, 2014
    Messages:
    19
    Likes Received:
    0
    Thanks u so much
     
  5. tetard

    tetard Well-Known Member

    Joined:
    Mar 29, 2014
    Messages:
    865
    Likes Received:
    1,487
    Many thanks
     
  6. majid6888

    majid6888 Member

    Joined:
    Dec 15, 2013
    Messages:
    91
    Likes Received:
    1
     
  7. quake2

    quake2 Well-Known Member

    Joined:
    Oct 11, 2014
    Messages:
    1,104
    Likes Received:
    63
    ok thx
     
  8. Rhapsonyx

    Rhapsonyx Active Member

    Joined:
    May 14, 2015
    Messages:
    549
    Likes Received:
    37
    OMG!!! Thank you so much!!!! :D
     
  9. alifaxa

    alifaxa Member

    Joined:
    Oct 21, 2015
    Messages:
    480
    Likes Received:
    11
    Kylie Minogue - Timebomb (LPCM-Master-ProRes-1080p)
     
  10. femmemonsters

    femmemonsters Active Member

    Joined:
    Oct 8, 2015
    Messages:
    618
    Likes Received:
    31
    omg thank you!!!
     
  11. Anggi Edwarsa

    Anggi Edwarsa Active Member

    Joined:
    May 3, 2014
    Messages:
    373
    Likes Received:
    147
    Nice. Thanks
     
  12. SickVidya

    SickVidya Member

    Joined:
    Dec 10, 2015
    Messages:
    42
    Likes Received:
    0
    Thank you
     
  13. rikimiki12

    rikimiki12 New Member

    Joined:
    Jan 16, 2016
    Messages:
    14
    Likes Received:
    0
    thanks!!!
     
  14. TrendMusic

    TrendMusic Well-Known Member

    Joined:
    Oct 7, 2013
    Messages:
    1,411
    Likes Received:
    104
  15. kineticsolace

    kineticsolace Member

    Joined:
    Dec 18, 2015
    Messages:
    47
    Likes Received:
    1
  16. nathancorsini

    nathancorsini Well-Known Member

    Joined:
    Jan 19, 2016
    Messages:
    281
    Likes Received:
    252
    Thank you
     
  17. bruvc

    bruvc New Member

    Joined:
    Feb 4, 2016
    Messages:
    17
    Likes Received:
    1
    thanks!
     
  18. TrendMusic

    TrendMusic Well-Known Member

    Joined:
    Oct 7, 2013
    Messages:
    1,411
    Likes Received:
    104
  19. wickedtongue

    wickedtongue Member

    Joined:
    Dec 18, 2015
    Messages:
    72
    Likes Received:
    1
  20. powersola

    powersola New Member

    Joined:
    Dec 21, 2015
    Messages:
    29
    Likes Received:
    1
    Thank youuu
     
  21. vnnloser

    vnnloser New Member

    Joined:
    Feb 3, 2016
    Messages:
    20
    Likes Received:
    0